<?xml version="1.0" standalone="no"?>
<!DOCTYPE svg PUBLIC "-//W3C//DTD SVG 1.1//EN" "http://www.w3.org/Graphics/SVG/1.1/DTD/svg11.dtd" >
<svg xmlns="http://www.w3.org/2000/svg" xmlns:xlink="http://www.w3.org/1999/xlink" version="1.1">
<metadata></metadata>
<defs>
<font id="univers65_bold" horiz-adv-x="1138" >
<font-face units-per-em="2048" ascent="1536" descent="-512" />
<missing-glyph horiz-adv-x="569" />
<glyph horiz-adv-x="0" />
<glyph horiz-adv-x="682" />
<glyph unicode=" "  horiz-adv-x="569" />
<glyph unicode="&#x09;" horiz-adv-x="569" />
<glyph unicode="&#xa0;" horiz-adv-x="569" />
<glyph unicode="!" horiz-adv-x="796" d="M252 1481h274l-26 -1078h-211zM264 0v272h260v-272h-260z" />
<glyph unicode="&#x22;" horiz-adv-x="970" d="M150 1427h272l-55 -507h-162zM543 1427h270l-53 -507h-162z" />
<glyph unicode="#" d="M-18 358v226h211l45 247h-168v226h211l67 370h262l-67 -370h194l68 370h264l-70 -370h170v-226h-211l-45 -247h168v-226h-211l-65 -358h-262l67 358h-196l-66 -358h-264l66 358h-168zM455 584h194l47 247h-194z" />
<glyph unicode="$" d="M49 440h279q-2 -58 12 -102t34 -67t47 -37t45.5 -17.5t35.5 -3.5v362q-63 18 -108.5 33.5t-98 40t-88.5 55t-67 71.5t-46.5 96t-15.5 122q0 158 104 271q33 36 73.5 63t70 40.5t74 23.5t60 12t54.5 6v172h113v-168q102 -7 182 -32.5t145 -90.5q35 -35 57 -73.5t31 -80 t11.5 -65.5t3.5 -61h-275q-2 55 -14 91.5t-35 56t-47.5 28t-62.5 12.5v-364q58 -14 97.5 -25.5t90.5 -31t85 -40.5t70 -52.5t57 -69t34.5 -89t13.5 -112.5q0 -112 -51 -195.5t-123 -134.5q-49 -35 -108 -55.5t-94.5 -25t-86.5 -7.5v-205h-108v205q-202 -6 -338 121 q-61 57 -85.5 133t-27.5 190zM356 1034q0 -42 12 -71.5t37.5 -48.5t47 -28.5t59.5 -21.5v330q-76 -4 -116 -48t-40 -112zM612 209q69 7 117.5 52t48.5 122q0 65 -38.5 105t-127.5 65v-344z" />
<glyph unicode="%" horiz-adv-x="1820" d="M102 1165q0 25 0.5 42t3.5 50.5t9 58t18 58t28.5 57.5t43 50t59.5 42.5t79 27t101 10.5q83 0 144 -21t97 -54.5t57.5 -84.5t28.5 -101t7 -114q0 -33 -1 -55.5t-7.5 -69.5t-18.5 -80t-38 -74.5t-61.5 -67.5t-92.5 -44.5t-129 -18.5q-71 0 -127 19.5t-93.5 53.5t-62 83.5 t-35 107t-10.5 125.5zM324 1174q0 -122 24.5 -176t87.5 -54q58 0 88.5 51.5t30.5 188.5q0 31 -1.5 55.5t-8 56.5t-17.5 53.5t-32.5 36.5t-51.5 15q-25 0 -44.5 -10t-32 -24t-21.5 -37t-13 -40.5t-6.5 -44.5t-2.5 -39v-32zM436 -25l778 1600h154l-778 -1600h-154zM1044 373 q0 25 0.5 41t3.5 50t8.5 57.5t17.5 57.5t28.5 58t43 50t59.5 42t79.5 26.5t101.5 10.5q82 0 143 -21t97 -55t57.5 -84.5t29 -100.5t7.5 -112q0 -26 -0.5 -42t-3.5 -51t-9 -60t-18 -60.5t-29 -61t-44 -53t-60.5 -44.5t-81 -28t-104.5 -11q-88 0 -152.5 29.5t-101.5 83.5 t-54.5 123t-17.5 155zM1264 379q0 -121 25 -175t89 -54q58 0 88.5 51t30.5 188q0 217 -113 217q-25 0 -44.5 -10t-32 -23.5t-21.5 -36.5t-13 -40.5t-6.5 -44.5t-2.5 -39v-33z" />
<glyph unicode="&#x26;" horiz-adv-x="1593" d="M47 408q0 156 107 290q71 88 192 165q7 5 10 7q-24 20 -38.5 33t-44.5 46.5t-47.5 64t-32.5 76.5t-15 94q0 22 3.5 46.5t16 58.5t32 64.5t54.5 61.5t81 54t114.5 37t151.5 14q109 0 192.5 -24t129 -59t74.5 -82t37.5 -84.5t8.5 -74.5q0 -47 -12.5 -91t-30 -76.5 t-46.5 -65t-51.5 -52.5t-56.5 -43t-49 -32t-41 -23l299 -301q39 109 49.5 190.5t10.5 217.5h303q0 -188 -37.5 -328t-128.5 -285l301 -311h-383l-115 137q-48 -36 -82.5 -58.5t-95.5 -53t-137 -45.5t-164 -15q-162 0 -287.5 51.5t-198.5 154t-73 241.5zM367 432 q0 -112 76.5 -179t183.5 -67q67 0 141 32.5t131 78.5l-373 379q-159 -104 -159 -244zM481 1192q0 -41 35.5 -94.5t63.5 -80.5t49 -44q21 15 42 33.5t47.5 47.5t43 64.5t16.5 69.5q0 60 -40 97.5t-107 37.5t-108.5 -36t-41.5 -95z" />
<glyph unicode="'" horiz-adv-x="487" d="M104 1427h273l-55 -507h-162z" />
<glyph unicode="(" horiz-adv-x="681" d="M127 637q0 218 55 440t154 473h223q-38 -116 -59 -184t-54.5 -199t-50 -261t-16.5 -259q0 -190 37 -365t141 -534h-223q-207 504 -207 889z" />
<glyph unicode=")" horiz-adv-x="681" d="M123 -252q38 116 59 184t54.5 199t50 261t16.5 259q0 191 -37 364.5t-141 534.5h223q207 -501 207 -886q0 -218 -55 -440.5t-154 -475.5h-223z" />
<glyph unicode="*" d="M137 952v217l312 -45l-193 244l190 105l115 -283l121 289l190 -113l-200 -242l313 37l-4 -217l-305 47l192 -252l-190 -104l-119 289l-119 -291l-184 110l190 250z" />
<glyph unicode="+" horiz-adv-x="1196" d="M53 414v264h408v414h274v-414h408v-264h-408v-414h-274v414h-408z" />
<glyph unicode="," horiz-adv-x="569" d="M57 -231l152 503h303l-244 -503h-211z" />
<glyph unicode="-" horiz-adv-x="681" d="M90 426v231h508v-231h-508z" />
<glyph unicode="." horiz-adv-x="569" d="M152 0v272h260v-272h-260z" />
<glyph unicode="/" horiz-adv-x="909" d="M59 0l555 1470h236l-551 -1470h-240z" />
<glyph unicode="0" d="M78 711q0 50 3 101.5t15.5 127.5t32.5 142t58 136t88.5 119.5t128 81t171.5 31.5t174 -32t124 -71t75 -85q62 -92 95.5 -211t33.5 -306q0 -77 -5.5 -147.5t-20 -149.5t-38 -145t-63 -128t-91 -104.5t-125.5 -68t-163 -25.5q-107 0 -192 40t-140.5 108t-92.5 163.5 t-52.5 199.5t-15.5 223zM389 690q0 -471 191 -471q190 0 190 475q0 82 -9.5 185.5t-27.5 167.5q-3 16 -8 32.5t-17.5 42t-28.5 44t-42.5 32.5t-58.5 14q-58 0 -92.5 -38t-49.5 -84q-47 -145 -47 -400z" />
<glyph unicode="1" d="M195 930v284q194 83 378 216h265v-1430h-310v1112q-132 -101 -333 -182z" />
<glyph unicode="2" d="M51 0v289l371 338q137 122 215 217q58 70 78 113t20 94q0 83 -45.5 132.5t-124.5 49.5q-46 0 -81 -18.5t-53 -42.5t-29 -57.5t-13.5 -52.5t-3.5 -38h-313q0 32 1.5 53.5t8.5 60.5t25.5 78t48.5 76q61 75 168 115.5t239 40.5q227 0 355.5 -109t128.5 -280q0 -51 -10.5 -96 t-50 -118t-110 -155t-198.5 -202.5t-307 -264.5q79 2 190.5 4.5t202.5 3.5q222 4 291 7v-238h-1004z" />
<glyph unicode="3" d="M45 389h311q1 -20 3.5 -38t14 -48t29.5 -51t54 -37t84 -16q85 0 134.5 54.5t49.5 139.5q0 44 -12.5 78t-30 56t-49.5 37.5t-57.5 23t-68.5 11.5t-66.5 4.5t-67.5 0.5v240q34 1 50.5 1.5t51.5 3.5t54 6.5t50 11.5t48.5 18t39 26.5t33 36.5t19.5 48t8 61q0 81 -51 125.5 t-125 44.5q-71 0 -122.5 -47t-51.5 -131h-314q5 49 8.5 74.5t23 76t52.5 90.5q129 158 398 158q88 0 162 -18t125 -48.5t90 -69t61 -83.5t32.5 -87t10.5 -83q0 -68 -23.5 -124t-53.5 -88.5t-74 -58.5t-69 -35.5t-54 -17.5q103 -32 170 -88q116 -97 116 -256 q0 -181 -147.5 -301.5t-370.5 -120.5q-90 0 -185.5 23t-158.5 74q-131 107 -131 323z" />
<glyph unicode="4" d="M33 311v277l573 842h305l-2 -883h195v-236h-195v-311h-303v311h-573zM262 541h361v377q0 83 4 157z" />
<glyph unicode="5" d="M63 352h304q-1 -12 2.5 -29.5t15 -40.5t29 -42.5t49.5 -33t72 -13.5q90 0 150 67.5t60 200.5q0 112 -46.5 184t-143.5 72q-138 0 -182 -144l-297 9l33 845h866v-233h-596l-19 -354q26 23 41 34t50 30.5t79.5 28.5t100.5 9q179 0 300.5 -123.5t121.5 -331.5 q0 -96 -29 -184.5t-87.5 -165t-160 -122.5t-233.5 -46q-269 0 -400 156q-75 89 -80 227z" />
<glyph unicode="6" d="M76 620v1q0 119 9 216.5t32.5 198.5t71.5 181t118 131q133 100 330 100q83 0 157 -22t134 -65.5t96.5 -117t38.5 -168.5h-303q-4 72 -46 107t-104 35q-42 0 -76 -15.5t-55.5 -37.5t-37.5 -60.5t-24 -67.5t-13.5 -78t-6.5 -73.5t-2 -69.5q35 32 63.5 52.5t88.5 41.5 t129 21q77 0 148.5 -28t130.5 -81.5t94.5 -142.5t35.5 -201q0 -121 -35.5 -210t-115.5 -163q-142 -133 -365 -133q-80 0 -147 17.5t-114.5 44t-85.5 69.5t-61.5 82.5t-41 95.5t-25.5 95t-12.5 95t-5 82t-0.5 68zM393 451q0 -124 56.5 -187t138.5 -63q78 0 137 61.5t59 194.5 q0 115 -52 180t-132 65q-19 0 -41.5 -4.5t-53 -20.5t-54.5 -41.5t-41 -73.5t-17 -111z" />
<glyph unicode="7" d="M76 1190v237h968v-253l-491 -1174h-342l522 1190h-657z" />
<glyph unicode="8" d="M63 393q0 148 105 250q32 31 70 54.5t59 31.5t59 21q-24 8 -38 13t-46 19t-53 28t-48.5 39t-44 53t-28.5 68t-12 85q0 54 17.5 108.5t56.5 107t95 93t140.5 65.5t184.5 25q214 0 349.5 -109.5t135.5 -277.5q0 -123 -83 -209t-198 -104q32 -9 51.5 -16t54.5 -23.5t66 -44 t58 -64.5q65 -93 65 -213q0 -127 -73 -223t-191 -144.5t-260 -48.5q-215 0 -353.5 120.5t-138.5 295.5zM369 410q0 -102 62 -157.5t144 -55.5q34 0 68 12t65 36t50.5 68t19.5 101q0 94 -60 150.5t-145 56.5q-89 0 -146.5 -60t-57.5 -151zM391 1051q0 -77 51 -131t133 -54 q81 0 137 50.5t56 134.5q0 83 -56.5 130.5t-133.5 47.5q-79 0 -133 -49t-54 -129z" />
<glyph unicode="9" d="M51 977q0 204 137.5 336.5t368.5 132.5q80 0 147 -17t115.5 -44t87 -69.5t63.5 -84t43 -98t27 -101t14 -103t6 -94.5t1 -85q0 -179 -24.5 -312.5t-69.5 -222t-114.5 -143t-152 -77t-190.5 -22.5q-21 0 -36.5 0.5t-51 4t-63 9.5t-66 19t-68 31t-60.5 47t-51 65t-33 87.5 t-13 111.5h309q6 -65 45.5 -102t103.5 -37q52 0 91 17.5t63 47.5t40 70.5t21.5 87t8.5 96.5t0 99q-110 -99 -258 -99q-100 0 -179.5 31t-127.5 78t-79 109t-43 118.5t-12 112.5zM354 989q0 -20 2.5 -42.5t14.5 -57t31 -61t57 -45.5t88 -19q54 0 94 22t61.5 58t31 74t9.5 79 q0 97 -49.5 157t-140.5 60q-69 0 -115.5 -34.5t-65 -83.5t-18.5 -107z" />
<glyph unicode=":" horiz-adv-x="569" d="M156 0v274h258v-274h-258zM156 758v276h258v-276h-258z" />
<glyph unicode=";" horiz-adv-x="569" d="M27 -231l151 503h303l-243 -503h-211zM164 758v276h258v-276h-258z" />
<glyph unicode="&#x3c;" horiz-adv-x="1196" d="M53 410v274l1090 422v-287l-762 -272l762 -273v-288z" />
<glyph unicode="=" horiz-adv-x="1196" d="M53 176v264h1090v-264h-1090zM53 651v264h1090v-264h-1090z" />
<glyph unicode="&#x3e;" horiz-adv-x="1196" d="M53 -14v288l762 273l-762 272v287l1092 -422v-274z" />
<glyph unicode="?" horiz-adv-x="1024" d="M94 1253v213q160 41 346 41q75 0 144 -13t132 -43t110 -73.5t74.5 -108.5t27.5 -145q0 -111 -58 -196q-64 -93 -106 -129l-117 -105q-79 -71 -101 -107t-22 -89v-166h-233v190q0 30 2.5 48.5t20.5 55t53 76.5l90 101q155 174 155 297q0 20 -3 40.5t-17.5 51.5t-39 54 t-72.5 40t-113 17q-45 0 -91.5 -7t-77 -15t-104.5 -28zM285 0v246h245v-246h-245z" />
<glyph unicode="@" horiz-adv-x="1996" d="M242 721q0 179 66.5 329t179 250t261.5 155.5t314 55.5q111 0 212.5 -24.5t189 -75t152 -123t101.5 -173.5t37 -220q0 -143 -54.5 -264t-150.5 -192.5t-213 -71.5q-102 0 -155 65q-30 39 -35 96q-94 -174 -273 -174q-120 0 -197 84t-77 230q0 120 52.5 231t148 182.5 t207.5 71.5q108 0 168 -55q30 -28 47 -70l26 92h203l-123 -422q-26 -85 -26 -125q0 -35 20 -53t49 -18q86 0 164 115t78 288q0 104 -33.5 188.5t-88 139t-128 91.5t-149.5 53t-156 16q-138 0 -261 -45t-217.5 -129t-150 -215t-55.5 -291q0 -193 85.5 -337t234.5 -219 t341 -75q39 0 69.5 1.5t90.5 12t114.5 29.5t128 58t144.5 93l70 -92q-167 -121 -314.5 -171t-310.5 -50q-229 0 -408 95.5t-278.5 268t-99.5 394.5zM842 637q0 -10 1 -22t7 -33.5t15.5 -38t30 -29t48.5 -12.5q82 0 137 123q25 53 43.5 123.5t25.5 111t7 49.5q0 39 -26 68 t-74 29q-81 0 -148 -116t-67 -253z" />
<glyph unicode="A" horiz-adv-x="1478" d="M10 0l535 1481h377l514 -1481h-320l-106 319h-586l-111 -319h-303zM506 559h424l-205 631z" />
<glyph unicode="B" horiz-adv-x="1366" d="M139 0v1479h553q66 0 111.5 -2t123.5 -19t130 -49q48 -31 82.5 -72.5t51.5 -85.5t24.5 -82.5t7.5 -74.5q0 -143 -86 -222q-15 -18 -64 -51.5t-104 -48.5v-4q158 -29 235.5 -130t77.5 -230q0 -123 -61.5 -212.5t-155.5 -136.5q-115 -59 -373 -59h-553zM442 238h215h49 t48 2t48.5 5t43 10t40.5 16.5t32 24.5t27 34.5t15.5 46.5t6.5 59q0 44 -12 78t-28.5 56t-47.5 37.5t-55 23t-66 11.5t-65.5 4.5t-67.5 0.5h-183v-409zM442 877h222q32 0 51 1t54 6t57 17t45.5 32t35 54t11.5 80q0 30 -6 55t-14.5 42.5t-24.5 32t-29.5 23t-35.5 15t-37 9.5 t-39.5 5t-37.5 2h-37h-215v-374z" />
<glyph unicode="C" horiz-adv-x="1366" d="M70 709q0 233 82 409.5t236 273.5t360 97q244 0 397 -136t153 -356h-323q-31 260 -240 260q-86 0 -151.5 -42.5t-104.5 -118.5t-58.5 -174t-19.5 -215q0 -31 1 -56.5t7 -81.5t16.5 -99.5t34 -97t55 -89t82.5 -60t114 -24.5q109 0 185.5 70.5t80.5 209.5h334 q-3 -48 -7 -77t-16.5 -81t-40 -99.5t-69.5 -90.5q-161 -166 -433 -166q-148 0 -265.5 42.5t-193 113t-125.5 168.5t-70.5 201.5t-20.5 218.5z" />
<glyph unicode="D" horiz-adv-x="1478" d="M133 0v1477l490 -1q328 0 510 -135q89 -65 147 -165t81 -202t23 -214q0 -165 -42 -300t-115 -224.5t-166 -144.5t-201 -75q-88 -16 -266 -16h-461zM455 244q70 -4 125 -4q120 0 200.5 19.5t143.5 82.5q44 44 73 105.5t41 126t15.5 106t3.5 80.5q0 81 -14.5 152 t-45.5 133.5t-85 107t-126 64.5q-82 23 -227 23q-48 0 -104 -3v-993z" />
<glyph unicode="E" horiz-adv-x="1251" d="M152 0v1481h991v-242h-674v-352h631v-242h-631v-399h696v-246h-1013z" />
<glyph unicode="F" d="M141 0v1479h955v-238h-637v-364h594v-246h-594v-631h-318z" />
<glyph unicode="G" horiz-adv-x="1593" d="M78 717q0 193 58 346.5t162 253t245.5 152.5t310.5 53q152 0 286.5 -46t217.5 -141q35 -40 57.5 -82.5t32 -86t12.5 -72t4 -68.5h-329q-5 94 -41 150q-71 114 -248 114q-103 0 -182.5 -37.5t-125.5 -94.5t-75 -135.5t-39 -149t-10 -146.5q0 -265 123 -397 q58 -64 139.5 -95.5t208.5 -31.5q143 0 241 28v312h-286v245h604v-739q-68 -23 -118 -36.5t-168.5 -29.5t-254.5 -16q-238 0 -385.5 51t-243.5 146q-196 191 -196 553z" />
<glyph unicode="H" horiz-adv-x="1478" d="M137 0v1481h318v-592h559v592h321v-1481h-317v649h-563v-649h-318z" />
<glyph unicode="I" horiz-adv-x="569" d="M123 0v1485h317v-1485h-317z" />
<glyph unicode="J" d="M18 479h312q3 -129 42 -195.5t132 -66.5q130 0 162 125q12 61 12 231v908h321v-910q0 -188 -49 -314.5t-180 -207.5q-103 -63 -287 -63q-133 0 -227 38.5t-160 141.5q-33 50 -51.5 115.5t-22 103.5t-4.5 94z" />
<glyph unicode="K" horiz-adv-x="1366" d="M137 0v1477h318v-637l495 641h371l-543 -664l590 -817h-395l-518 754v-754h-318z" />
<glyph unicode="L" d="M141 0v1479h324v-1227h635v-252h-959z" />
<glyph unicode="M" horiz-adv-x="1933" d="M123 0v1481h518l313 -1078l338 1078h504v-1481h-315v1270l-404 -1270h-262l-395 1270v-1270h-297z" />
<glyph unicode="N" horiz-adv-x="1593" d="M147 0v1481h459l555 -1166v1166h295v-1481h-436l-574 1229v-1229h-299z" />
<glyph unicode="O" horiz-adv-x="1593" d="M86 719q0 123 22.5 234t75.5 214.5t132.5 178.5t203 120t277.5 45q343 0 520 -200q56 -64 95.5 -140.5t58.5 -152.5t26.5 -139t7.5 -125q0 -166 -49 -323.5t-137 -256.5q-58 -65 -132 -110t-148.5 -65t-132 -28t-113.5 -8q-153 0 -290 50.5t-235 152.5q-182 193 -182 553 zM418 729q0 -270 110 -414q87 -118 269 -118q188 0 276 137q101 153 101 424q0 157 -37 264q-44 132 -132 197t-206 65q-176 0 -273 -125q-108 -131 -108 -430z" />
<glyph unicode="P" horiz-adv-x="1251" d="M133 0v1477h457q92 0 155 -5t133.5 -20.5t126 -49.5t99.5 -87q90 -108 90 -277q0 -128 -50 -232t-138 -161q-50 -32 -122 -49t-113 -19t-101 -2h-215v-575h-322zM446 811h127q31 0 49 0.5t53 5t57 12.5t50 24.5t44.5 39.5t28 59.5t11.5 83.5q0 42 -10.5 74.5t-25 53.5 t-39.5 35.5t-44.5 21.5t-50.5 11t-47 4.5t-43 0.5h-160v-426z" />
<glyph unicode="Q" horiz-adv-x="1593" d="M70 729q0 124 25.5 236t81 212.5t137.5 173.5t202 115.5t266 42.5q144 0 266 -49t211.5 -141t140 -234.5t50.5 -320.5q0 -96 -17.5 -180.5t-40 -139t-58 -106.5t-56.5 -74.5t-51 -50.5q96 17 225 17q51 0 107 -3v-231q-184 4 -365 4q-16 0 -52.5 -1.5t-93 -4t-94.5 -4.5 q-217 -13 -233 -13q-114 0 -210 29.5t-161.5 77.5t-116.5 114.5t-81 134.5t-49.5 143.5t-26 135.5t-6.5 117zM397 748q0 -57 6.5 -113t20.5 -119.5t41.5 -117t66 -97.5t97.5 -69t131 -25q75 0 135 24.5t99 68.5t66.5 97.5t41.5 120t20 126t6 124.5q0 240 -92 379 q-35 54 -102.5 95.5t-163.5 41.5q-101 0 -175.5 -45t-116.5 -123t-61.5 -169.5t-19.5 -198.5z" />
<glyph unicode="R" horiz-adv-x="1366" d="M123 0v1481h567h49q45 0 77 -1q48 -2 112.5 -10.5t116 -31t94.5 -58.5q66 -57 97.5 -132t31.5 -152q0 -57 -14 -106t-34 -83t-52 -63.5t-57.5 -46t-60.5 -32t-51.5 -20.5t-40.5 -12q149 -13 205 -102q36 -57 56 -194l6 -42v-1v-1q30 -224 45 -287q3 -14 6.5 -25t7 -20.5 t5.5 -15.5t6.5 -14t6 -10.5t7 -11t6.5 -9.5h-350q-4 26 -21 149.5t-33.5 231.5t-25.5 133q-8 24 -23 41t-29.5 25t-37 12.5t-35.5 5t-35 0.5h-279v-598h-323zM436 834h256q112 0 162 40q16 11 32 28.5t33 57.5t17 87q0 117 -78 165q-23 17 -56.5 24.5t-62 9t-90.5 1.5h-213 v-413z" />
<glyph unicode="S" horiz-adv-x="1366" d="M72 473h323q0 -24 0.5 -38t5.5 -47t14 -55t29 -51t47.5 -46.5t72 -30t100.5 -12.5q129 0 204.5 56t75.5 150q0 28 -6.5 50t-15.5 38.5t-30 31t-38 23.5t-53.5 20t-61 17.5t-75.5 18.5q-140 35 -235 72t-168 89t-107.5 123t-34.5 165t34.5 175t103 145t183.5 101t265 37 q307 0 446 -174q84 -106 84 -274h-305q-18 225 -240 225q-110 0 -177 -55t-67 -146q0 -40 13 -69t37.5 -49.5t63 -36t87 -29t111.5 -29.5q7 -1 10 -2q67 -16 109.5 -27.5t102 -32t97 -41t79 -52t65.5 -68.5t39.5 -88t15.5 -111q0 -101 -41.5 -187.5t-119.5 -152.5 t-199 -103.5t-271 -37.5q-92 0 -169 13.5t-132 33.5t-99 53.5t-71.5 63.5t-48 74t-30 74t-15.5 74.5t-7 65.5t-1 56z" />
<glyph unicode="T" horiz-adv-x="1251" d="M29 1235v246h1200v-246h-441v-1235h-319v1235h-440z" />
<glyph unicode="U" horiz-adv-x="1593" d="M147 592v885h318v-902q0 -43 1.5 -72t8.5 -70.5t19 -69.5t36 -59t57 -49.5t84 -31t115 -12.5q204 0 287 129q25 36 36 90.5t11 161.5v885h310v-924q0 -127 -39.5 -229t-103 -166.5t-150 -107.5t-175 -61t-182.5 -18q-51 0 -101.5 5t-117.5 21.5t-124.5 43t-115.5 74.5 t-98 112q-49 77 -62.5 158t-13.5 207z" />
<glyph unicode="V" horiz-adv-x="1478" d="M25 1475h346l387 -1162l389 1162h313l-545 -1475h-346z" />
<glyph unicode="W" horiz-adv-x="2048" d="M31 1475h327l230 -1108l289 1108h358l260 -1108l240 1108h303l-377 -1479h-352l-269 1130l-288 -1130h-361z" />
<glyph unicode="X" horiz-adv-x="1478" d="M27 0l520 766l-486 715h392l299 -504l319 504h340l-487 -713l516 -768h-389l-330 557l-354 -557h-340z" />
<glyph unicode="Y" horiz-adv-x="1366" d="M33 1475h370l306 -674l311 674h326l-500 -936v-539h-314v543z" />
<glyph unicode="Z" horiz-adv-x="1251" d="M55 0v270l774 969l-727 -6v242h1072v-281l-773 -963l789 13v-244h-1135z" />
<glyph unicode="[" horiz-adv-x="681" d="M119 -252v1792h469v-188h-223v-1413h223v-191h-469z" />
<glyph unicode="\" horiz-adv-x="569" d="M59 1470h236l555 -1470h-240z" />
<glyph unicode="]" horiz-adv-x="681" d="M94 -61h223v1413h-223v188h469v-1792h-469v191z" />
<glyph unicode="^" horiz-adv-x="1196" d="M104 541l371 886h240l370 -886h-282l-211 557l-205 -557h-283z" />
<glyph unicode="_" horiz-adv-x="1024" d="M0 -154h1024v-102h-1024v102z" />
<glyph unicode="`" horiz-adv-x="569" d="M-25 1495h287l172 -297h-174z" />
<glyph unicode="a" d="M86 285q0 37 8 74t29.5 83t68 89.5t113.5 74.5q129 58 410 58q0 91 -15 137q-12 35 -41 55.5t-51.5 25.5t-42.5 5q-74 0 -114 -58q-23 -35 -23 -92h-297q6 165 117 244q116 84 313 84q57 0 112.5 -7t132.5 -39t124 -87q71 -85 71 -254l3 -416q0 -147 24 -262h-274 q-11 69 -11 141q-27 -40 -58 -70t-61.5 -47t-56 -28t-54.5 -15t-43.5 -5t-35.5 -1q-172 0 -258 82q-90 90 -90 228zM381 319q0 -58 38.5 -102.5t108.5 -44.5q77 0 129 59q37 45 47.5 102.5t10.5 153.5q-32 3 -61 3q-108 0 -180 -36q-92 -44 -93 -135z" />
<glyph unicode="b" horiz-adv-x="1251" d="M123 0v1477h303v-568q106 140 293 140q195 0 322.5 -146.5t127.5 -400.5q0 -112 -25.5 -202.5t-67 -149t-98 -98t-116.5 -56t-125 -16.5q-215 0 -311 165q-7 -110 -10 -145h-293zM414 526q0 -171 65 -259.5t172 -88.5q43 0 77.5 15t55.5 37t36.5 55.5t23 60t11.5 61.5 t4.5 50.5t0.5 34.5q0 25 -0.5 46t-5.5 59.5t-13 68.5t-24.5 65.5t-39.5 59t-59 39.5t-81 16q-46 0 -82.5 -15t-59.5 -36.5t-39.5 -54.5t-24 -59.5t-12 -62.5t-5 -52.5t-0.5 -39.5z" />
<glyph unicode="c" horiz-adv-x="1024" d="M72 518q0 97 20 177.5t51.5 135t75.5 96.5t88 65.5t92.5 38t85 19.5t70.5 5q60 0 118 -13t113.5 -42.5t97 -73.5t67 -110.5t26.5 -147.5h-297q-21 190 -133 190q-50 0 -84.5 -34t-49.5 -90.5t-20.5 -104.5t-5.5 -101q0 -45 3.5 -93t22 -119t50.5 -105q33 -35 82 -35 q13 0 26 2.5t33 14.5t35.5 32t28.5 59t16 91h299q-2 -40 -6 -69.5t-16.5 -73.5t-40.5 -85.5t-70 -76.5q-114 -97 -295 -97q-230 0 -352 138q-131 151 -131 407z" />
<glyph unicode="d" horiz-adv-x="1251" d="M70 494q0 254 126 404.5t330 150.5q187 0 291 -142v572h305v-1311q0 -90 8 -168h-307l-8 150q-13 -25 -22 -39t-31 -36.5t-51 -41.5q-82 -53 -201 -53q-207 0 -323.5 135.5t-116.5 378.5zM377 502q0 -91 19.5 -161.5t68 -117.5t121.5 -47q63 0 114.5 33.5t77.5 83.5 q49 94 49 244t-60.5 231.5t-164.5 81.5q-49 0 -87 -18t-61.5 -49.5t-40 -67t-23.5 -77.5t-10 -73.5t-3 -62.5z" />
<glyph unicode="e" d="M86 494q0 339 215 489q130 86 291 86q59 0 115 -12.5t113 -39.5t106.5 -78t83.5 -120q62 -126 62 -319q0 -29 -1 -60h-694q0 -276 211 -276q144 0 180 143h276q-11 -134 -98 -225q-56 -59 -151 -90t-211 -31q-241 0 -365 129q-133 139 -133 404zM387 631h375 q0 23 -1.5 43t-11.5 57.5t-27.5 63.5t-53.5 46.5t-86 20.5q-94 0 -142 -65.5t-53 -165.5z" />
<glyph unicode="f" horiz-adv-x="681" d="M0 819v215h154v142q0 59 8.5 104.5t32 89.5t62.5 72.5t103 45.5t150 17q78 0 164 -10v-211q-46 6 -64 6q-45 0 -76 -10t-46 -21.5t-23 -33.5t-9 -34.5t-1 -35.5v-121h192v-215h-192v-819h-301v819h-154z" />
<glyph unicode="g" horiz-adv-x="1251" d="M88 528q0 100 28 190.5t81 163t139 115.5t194 43q53 0 99.5 -11.5t74.5 -26.5t54.5 -39t36.5 -37t24 -33l10 137h285q-14 -143 -14 -256v-764q0 -79 -18.5 -143t-48.5 -106.5t-74 -74.5t-88 -49.5t-98.5 -28t-97 -13.5t-91.5 -3q-39 0 -71.5 2t-79.5 9.5t-84.5 20.5 t-78.5 38t-69 59t-48 86t-24 117h291q18 -143 180 -143q71 0 122.5 34.5t65.5 100.5q13 53 15 246q-107 -142 -279 -142q-107 0 -192.5 44t-137.5 117t-79 162t-27 185zM391 528q0 -19 0.5 -33.5t4.5 -48t11 -59t22 -57.5t36 -53t54 -35.5t75 -14.5q44 0 79 14.5t56.5 35.5 t37.5 52.5t23.5 57t11.5 58t4.5 46.5t0.5 31q0 41 -3.5 78t-16.5 83t-34.5 78t-60.5 54.5t-92 22.5q-93 0 -151 -76.5t-58 -233.5z" />
<glyph unicode="h" horiz-adv-x="1251" d="M141 0v1479h301v-586q16 22 27 36t39 39.5t57 40.5t76 27.5t100 12.5q105 0 180.5 -41t120.5 -99q68 -94 68 -280v-629h-301v618q0 19 -0.5 31.5t-3.5 38.5t-9 44t-18.5 41t-30 37t-45.5 24t-63 10q-77 0 -136 -50.5t-59 -160.5l2 -633h-305z" />
<glyph unicode="i" horiz-adv-x="569" d="M123 1214v265h323v-265h-323zM133 0v1036h303v-1036h-303z" />
<glyph unicode="j" horiz-adv-x="569" d="M-4 -193h10q32 0 56 12q28 14 41.5 31.5t20.5 47.5t8 46t1 40v1054h303v-1130q0 -155 -76.5 -234.5t-261.5 -79.5q-51 0 -102 9v204zM123 1214v265h323v-265h-323z" />
<glyph unicode="k" d="M137 0v1481h301v-873l314 432h342l-355 -450l377 -590h-358l-320 563v-563h-301z" />
<glyph unicode="l" horiz-adv-x="569" d="M133 0v1481h303v-1481h-303z" />
<glyph unicode="m" horiz-adv-x="1933" d="M129 1034h293l10 -133q15 21 26 34.5t41 39t61 41t82 28.5t110 13q245 0 325 -195q100 193 332 193q59 0 110.5 -14t84 -32.5t60 -44t39 -42t21.5 -33.5q19 -32 31 -69t16 -87.5t4.5 -71.5t0.5 -77v-584h-306v608q0 39 -3 67.5t-13 62t-28 54.5t-51 35.5t-79 14.5 q-38 0 -67.5 -10.5t-49 -26t-33 -43t-20.5 -51.5t-11 -62t-4.5 -63.5t-0.5 -67.5v-518h-305v614q0 34 -1.5 55.5t-10.5 58t-25.5 58.5t-50.5 39t-82 17q-45 0 -79.5 -11.5t-54.5 -34t-32.5 -44t-17.5 -53.5t-6 -49t-1 -42v-608h-305v840q0 84 -10 194z" />
<glyph unicode="n" horiz-adv-x="1251" d="M131 1038h291l8 -155q14 22 25 37.5t41 45t63 48.5t88 34t119 15q72 0 130 -19.5t94.5 -51.5t57.5 -62.5t33 -61.5q18 -48 23.5 -107.5t5.5 -201.5v-559h-309v643q0 78 -17 113q-45 88 -147 88q-49 0 -91 -21.5t-67 -58.5q-37 -56 -37 -158v-606h-305v850q0 116 -6 188z " />
<glyph unicode="o" horiz-adv-x="1251" d="M86 508q0 79 16 153.5t55.5 148t98.5 128t153 88t212 33.5q136 0 241 -43.5t168 -120t95 -172.5t32 -207q0 -89 -20 -169.5t-63.5 -151t-106 -122t-153.5 -81t-200 -29.5q-112 0 -207 35t-167 101.5t-113 171.5t-41 237zM397 506q0 -171 57 -251.5t171 -80.5 q108 0 165.5 80t57.5 274q0 328 -227 328q-224 0 -224 -350z" />
<glyph unicode="p" horiz-adv-x="1251" d="M123 -397v1431h295l8 -147q95 168 315 168q200 0 315 -139.5t115 -376.5q0 -112 -29 -210.5t-83.5 -175.5t-141.5 -122t-196 -45q-186 0 -289 133v-516h-309zM418 508q0 -25 1.5 -46t7 -64t20.5 -76t38 -66.5t64 -52.5t94 -19q105 0 163 92.5t58 249.5q0 54 -8.5 105.5 t-29 106.5t-64.5 88.5t-107 33.5q-41 0 -79 -16.5t-75.5 -54t-60 -110t-22.5 -171.5z" />
<glyph unicode="q" horiz-adv-x="1251" d="M74 530q0 115 26 207t68.5 150.5t100 98t117.5 55.5t124 16q60 0 112 -15t82.5 -32.5t59 -46t37.5 -42t22 -34.5l11 149h299q0 -6 -3.5 -90.5t-3.5 -107.5v-1231h-311v514q-113 -135 -287 -135q-65 0 -127.5 18t-122.5 60t-104.5 103.5t-72 155t-27.5 207.5zM383 522 q0 -170 68 -262q53 -74 159 -74q47 0 84.5 16t60.5 45t39 61.5t23.5 72.5t10.5 71t3 64q0 40 -4.5 79.5t-19.5 89t-39 86t-69 62t-105 25.5q-50 0 -88.5 -20.5t-61 -52.5t-37 -77.5t-19.5 -90t-5 -95.5z" />
<glyph unicode="r" horiz-adv-x="796" d="M119 1038h284l7 -198q15 33 28 56.5t41.5 54.5t63.5 49.5t91 30.5q45 10 100 10q14 0 28 -1v-272q-39 4 -73 4q-61 0 -107 -12q-70 -18 -99 -63.5t-38 -86t-9 -100.5v-510h-303v780q0 120 -14 258z" />
<glyph unicode="s" horiz-adv-x="1024" d="M59 299h285q4 -58 44.5 -99.5t127.5 -41.5q77 0 118.5 36.5t41.5 86.5q0 39 -30 66t-114 50l-188 52q-22 6 -31.5 9.5t-34.5 12.5t-39.5 16.5t-38 21.5t-37.5 28t-31.5 35.5t-27 44.5t-16 53.5t-6.5 64.5q0 149 125 236.5t328 87.5q168 0 277.5 -78t115.5 -227h-277 q-9 123 -147 123q-63 0 -103.5 -28.5t-40.5 -74.5q0 -26 8 -42.5t31 -29t41 -18.5t62 -18l186 -52q277 -75 277 -288q0 -68 -30 -131t-86.5 -114t-150 -81.5t-209.5 -30.5q-232 0 -354 127q-71 75 -76 203z" />
<glyph unicode="t" horiz-adv-x="796" d="M2 827v201h199v203l301 110v-313h246v-201h-246v-467q1 -27 1.5 -38.5t3 -32t7.5 -29.5t15 -22t24.5 -18t35.5 -9t50 -4q47 0 102 6v-199q-116 -32 -235 -32q-63 0 -113 11.5t-81 28t-53.5 43.5t-33.5 48.5t-17 54t-6.5 49t-0.5 43.5v567h-199z" />
<glyph unicode="u" horiz-adv-x="1251" d="M123 391v643h307v-616q0 -27 0.5 -41.5t3.5 -42t8.5 -44.5t17.5 -38t29 -33t43 -20.5t60 -8.5q32 0 58 6t45 14t34 25t24.5 30.5t16 40.5t9.5 43.5t5 51.5t2 53v58v522h312v-682q2 -96 3.5 -161t2 -85t0.5 -30q2 -36 8 -76h-295l-10 137q-16 -23 -25 -35.5t-38.5 -40.5 t-58.5 -44t-78 -30t-105 -14q-100 0 -183.5 40t-128.5 100q-67 83 -67 278z" />
<glyph unicode="v" d="M14 1034h324l233 -702l238 702h293l-373 -1034h-336z" />
<glyph unicode="w" horiz-adv-x="1820" d="M10 1034h322l190 -780l219 780h334l217 -780l203 780h301l-354 -1034h-330l-213 766l-217 -766h-334z" />
<glyph unicode="x" d="M18 0l347 555l-332 479h358l195 -338l202 338h316l-336 -504l346 -530h-358l-209 379l-211 -379h-318z" />
<glyph unicode="y" d="M29 1034h327l228 -717l231 717h301l-391 -1016l-125 -411h-305l131 389z" />
<glyph unicode="z" horiz-adv-x="1024" d="M66 0v266l524 565h-510v203h848v-260l-525 -565h545v-209h-882z" />
<glyph unicode="{" horiz-adv-x="681" d="M-31 467v176q103 11 170 70q41 36 56.5 82.5t15.5 124.5v71q0 61 2 97.5t12 92.5t28.5 90.5t55.5 76t89.5 66t132 43.5t182.5 24v-168q-37 -3 -67.5 -11.5t-53 -19.5t-39.5 -29t-28.5 -34t-19 -40.5t-11.5 -41.5t-6 -45t-2.5 -44t-0.5 -44v-74q0 -59 -7 -106.5t-28.5 -96 t-56 -83t-93.5 -58.5t-138 -31q50 -6 77.5 -11t77 -27.5t84.5 -59.5q51 -51 67.5 -118.5t16.5 -158.5v-76q0 -36 0.5 -56.5t5 -56t12.5 -57.5t25 -49.5t40.5 -44t60.5 -29t84 -14.5v-168q-144 6 -239.5 36.5t-160.5 92.5q-55 49 -78.5 122t-23.5 239v71q0 24 -0.5 36.5 t-2.5 36.5t-6 38t-12.5 35.5t-20 35t-30 30.5t-42 28t-56.5 21t-72 16z" />
<glyph unicode="|" horiz-adv-x="569" d="M150 -512v2048h270v-2048h-270z" />
<glyph unicode="}" horiz-adv-x="681" d="M-31 -203q47 2 84 14.5t60.5 28.5t40.5 43.5t25 49.5t12.5 57.5t5 56t0.5 57.5v76q0 54 3.5 92t23.5 92.5t57 92.5q35 37 84.5 59.5t77 27.5t77.5 11q-36 3 -59 7t-57.5 14.5t-66.5 32.5t-61 55q-41 46 -60 102t-19 164v74q0 28 -0.5 44t-2.5 44t-6 45t-11.5 41.5 t-19 40.5t-28.5 34t-39.5 29t-53 19.5t-67.5 11.5v168q79 -4 144.5 -16t114.5 -28.5t87 -42.5t63 -51t43 -61.5t27.5 -66t15 -73t6.5 -74.5t1 -77v-71q0 -139 66 -205q33 -32 85.5 -49.5t90.5 -22.5v-176q-49 -8 -87.5 -22.5t-63.5 -31t-43 -40t-27 -43t-14 -47.5t-6 -46.5 t-1 -46.5v-71q0 -62 -1.5 -98t-11.5 -92t-29 -90.5t-55.5 -76t-89 -66t-132.5 -43.5t-183 -24v168z" />
<glyph unicode="~" horiz-adv-x="1196" d="M37 354q10 178 99 283.5t218 105.5q33 0 73.5 -10t143.5 -41q217 -67 254 -73q21 -3 43 -3q34 0 58.5 14.5t36.5 38t17 38.5t7 32h174q-4 -53 -14.5 -102.5t-34.5 -103.5t-58 -93.5t-89 -65.5t-123 -26q-25 0 -59 6t-96.5 24.5t-91 27.5t-120.5 38q-2 0 -27.5 8t-41 12.5 t-39 9.5t-37.5 5q-50 0 -81.5 -35t-39.5 -90h-172z" />
<glyph unicode="&#xa1;" horiz-adv-x="796" d="M281 -389l24 1079h211l39 -1079h-274zM281 819v275h260v-275h-260z" />
<glyph unicode="&#xa2;" d="M129 512q0 243 128.5 392t365.5 149q39 0 67 -4l66 256h141l-74 -293q211 -81 211 -344h-295q-1 18 -3 34.5t-10 47.5t-21 52.5t-38 38.5t-59 17q-44 0 -76 -27.5t-48.5 -64.5t-26 -88.5t-11.5 -85t-2 -68.5q0 -64 8.5 -122.5t25.5 -111t49 -83.5t75 -31q19 0 38.5 7.5 t43 26t39.5 61.5t20 104h299q-2 -27 -3 -39t-7 -45.5t-13 -55t-22 -54.5t-34.5 -57t-49.5 -50.5t-67 -46.5q-124 -66 -285 -52l-69 -278h-140l76 305q-41 12 -81.5 37t-80 69t-70 100.5t-49 135t-18.5 168.5z" />
<glyph unicode="&#xa3;" d="M39 662v229h174v180q0 33 1 55.5t9 63.5t22.5 72.5t44.5 68.5t72 66q127 88 324 88q79 0 143 -14.5t106 -35.5t73.5 -56.5t48 -64.5t28 -73.5t15 -70t6.5 -66.5h-307q-7 174 -135 174q-33 0 -58 -10.5t-39 -29t-23 -36.5t-12.5 -41.5t-4.5 -35t-1 -25.5v-209h346v-229 h-346v-424h541v-238h-1006v238h150v424h-172z" />
<glyph unicode="&#xa4;" d="M39 1081l160 160l137 -137q39 20 65.5 31t71 21.5t90.5 10.5q113 0 236 -65l135 137l158 -158l-136 -137q64 -115 64 -231q0 -114 -64 -232l138 -135l-160 -160l-137 138q-111 -64 -230 -64q-116 0 -231 64l-137 -138l-158 160l137 137q-65 108 -65 230q0 114 65 231z M350 713q0 -90 63.5 -153.5t153.5 -63.5q89 0 153 64t64 153q0 90 -63.5 153.5t-153.5 63.5q-91 0 -154 -63t-63 -154z" />
<glyph unicode="&#xa5;" d="M0 1475h371l221 -674l227 674h328l-336 -746h244v-151h-326v-144h326v-151h-324l-2 -283h-311v281h-334v151h334v146h-334v151h256z" />
<glyph unicode="&#xa6;" horiz-adv-x="569" d="M150 358h270v-716h-270v716zM150 666v716h270v-716h-270z" />
<glyph unicode="&#xa7;" d="M147 717q0 78 46 149.5t141 108.5q-156 65 -156 229q0 132 107.5 209.5t285.5 77.5q150 0 316 -61l-6 -211q-180 79 -299 79q-62 0 -90 -24q-29 -25 -29 -64q0 -67 92 -104l180 -59q209 -68 209 -265q0 -93 -48 -157.5t-122 -98.5q172 -88 172 -245q0 -143 -114 -232.5 t-297 -89.5q-167 0 -351 61l6 230q162 -88 293 -88q74 0 123 26t49 82q0 24 -10 42.5t-30.5 31.5t-35.5 19.5t-42 15.5l-181 63q-105 36 -157 112.5t-52 162.5zM391 750q0 -35 15 -62t42.5 -44.5t48.5 -27t50 -18.5q74 26 107.5 73.5t33.5 92.5q0 110 -151 137 q-146 -43 -146 -151z" />
<glyph unicode="&#xa8;" horiz-adv-x="569" d="M0 1227v241h209v-241h-209zM352 1227v241h209v-241h-209z" />
<glyph unicode="&#xa9;" horiz-adv-x="1638" d="M43 737q0 213 105 391.5t282.5 280.5t384.5 102q156 0 298.5 -60.5t247 -163.5t166.5 -246.5t62 -303.5q0 -158 -61 -301t-165 -247t-247 -165t-301 -61q-157 0 -300 61t-246.5 165t-164.5 247t-61 301zM168 737q0 -175 86.5 -324t235.5 -236t325 -87q177 0 326.5 87.5 t236 236.5t86.5 323q0 176 -87.5 325t-237 235.5t-324.5 86.5q-174 0 -323 -86t-236.5 -235t-87.5 -326zM401 725q0 213 118 342t317 129q156 0 254.5 -81.5t99.5 -215.5h-209q-1 14 -3.5 29t-12.5 39.5t-25 43t-44.5 32.5t-68.5 14q-44 0 -79.5 -15.5t-57.5 -38.5t-38 -57 t-23.5 -61.5t-11.5 -63.5t-4.5 -52t-0.5 -36q0 -19 0.5 -34.5t4.5 -50.5t11 -62t22.5 -60t36.5 -55t55.5 -37.5t76.5 -15.5q64 0 112.5 42t51.5 126h215q-3 -38 -7 -62.5t-25.5 -70.5t-59.5 -82q-103 -95 -270 -95q-117 0 -204 38t-136 103t-72 142t-23 166z" />
<glyph unicode="&#xaa;" horiz-adv-x="684" d="M39 973q0 68 44 124t120 79q86 24 246 24q0 22 -1 35.5t-6 35t-14.5 33.5t-29 21.5t-46.5 9.5q-35 0 -62.5 -20.5t-27.5 -69.5h-192q0 58 26.5 99t70.5 61t88 28.5t93 8.5q287 0 287 -232v-249q0 -86 16 -158h-178q-6 41 -6 86q-21 -29 -39 -47t-61.5 -36t-100.5 -18 q-64 0 -111 17.5t-71 46.5t-34.5 59t-10.5 62zM231 993q0 -37 27.5 -61.5t71.5 -24.5q28 0 49.5 9.5t33.5 27t20 35t11 42.5t4 39.5t1 35.5q-96 6 -157 -20t-61 -83z" />
<glyph unicode="&#xab;" d="M57 516l224 389h270l-195 -389l195 -401h-270zM555 516l223 389h271l-195 -389l195 -401h-271z" />
<glyph unicode="&#xac;" horiz-adv-x="1196" d="M49 651v267h1092v-744h-275v477h-817z" />
<glyph unicode="&#xad;" horiz-adv-x="681" d="M90 426v231h508v-231h-508z" />
<glyph unicode="&#xae;" horiz-adv-x="1638" d="M45 737q0 214 107 393t284.5 280t382.5 101q155 0 297 -60t247 -162t167.5 -246.5t62.5 -305.5q0 -209 -104 -387.5t-282.5 -282.5t-387.5 -104q-208 0 -386 103t-283 281.5t-105 389.5zM170 739q0 -177 87 -327t236 -237t324 -87q177 0 327 88.5t237 238.5t87 324 q0 177 -88 326t-238 235t-325 86q-174 0 -322.5 -85t-236.5 -234t-88 -328zM528 303v868h299q31 0 49.5 -0.5t54.5 -5t59 -12.5t52 -25t46.5 -40.5t29.5 -61t12 -84.5q0 -46 -12 -82t-27 -56.5t-41.5 -37t-41.5 -22.5t-41 -15q20 -1 36 -5.5t28 -9t22.5 -16t17 -17.5 t12.5 -24.5t9 -25t7.5 -31.5t5.5 -32t5 -36q22 -191 45 -229h-184q-2 17 -10 84t-15.5 126.5t-7.5 64.5q-10 40 -28.5 56.5t-61.5 16.5h-152v-348h-168zM692 791h135q39 0 67 12t40.5 32.5t18 39t5.5 38.5q0 34 -9.5 58t-21.5 35.5t-32.5 17.5t-32.5 7t-31 1h-139v-241z" />
<glyph unicode="&#xaf;" horiz-adv-x="569" d="M-74 1278v139h701v-139h-701z" />
<glyph unicode="&#xb0;" horiz-adv-x="819" d="M59 1104q0 144 102.5 245t244.5 101q143 0 244.5 -101t101.5 -245q0 -145 -100.5 -245.5t-245.5 -100.5q-143 0 -245 101t-102 245zM270 1104q0 -57 40 -96t96 -39q58 0 97.5 39.5t39.5 95.5t-40 95.5t-97 39.5q-55 0 -95.5 -39.5t-40.5 -95.5z" />
<glyph unicode="&#xb1;" horiz-adv-x="1196" d="M53 -68v267h1090v-267h-1090zM53 573v267h408v319h274v-319h408v-267h-408v-305h-274v305h-408z" />
<glyph unicode="&#xb2;" horiz-adv-x="681" d="M14 584v172l240 202q106 86 168 166q37 49 37 95q0 44 -30.5 74t-78.5 30q-58 0 -88 -35.5t-33 -89.5h-202q0 97 53 160q43 48 115.5 71t152.5 23q143 0 227 -64.5t84 -168.5q0 -74 -37 -132.5t-149 -162.5q-88 -84 -252 -207q370 7 445 8v-141h-652z" />
<glyph unicode="&#xb3;" horiz-adv-x="681" d="M12 809h203q9 -115 121 -115q48 0 83.5 29t35.5 88q0 26 -8 47t-18.5 34t-31 22t-36.5 14t-44 7t-44 2.5t-46 0.5v143q37 1 63 3t60 9.5t55.5 20.5t36.5 37t15 57q0 49 -34 76t-83 27q-51 0 -83 -30.5t-30 -76.5h-202q3 31 5.5 46.5t14.5 46.5t33 53q35 38 101.5 66 t160.5 28q76 0 137.5 -21.5t97.5 -56t55 -75t19 -81.5q0 -144 -178 -194q186 -52 186 -205q0 -110 -96 -182t-239 -72q-23 0 -48 2.5t-65.5 9.5t-78.5 26t-62 48q-56 64 -56 166z" />
<glyph unicode="&#xb4;" horiz-adv-x="569" d="M147 1198l170 297h275l-281 -297h-164z" />
<glyph unicode="&#xb5;" horiz-adv-x="1251" d="M143 -434l2 1468h263v-499q0 -65 3 -108.5t14 -90t31.5 -73.5t57 -44.5t88.5 -17.5q40 0 72 11.5t53 28.5t36 45.5t22.5 54t11.5 62.5t5 62.5t1 62.5v506h264v-1034h-225v123q-18 -27 -32.5 -45t-43 -43.5t-68.5 -39t-90 -13.5q-45 0 -81 9.5t-61.5 29t-37 31t-27.5 32.5 v-518h-258z" />
<glyph unicode="&#xb6;" d="M-45 946q0 77 18.5 149t60.5 138.5t103.5 116t154 79t204.5 29.5h673v-211h-104v-1630h-256v1630h-195v-1630h-256v870q-47 4 -80 10t-85 29t-95 62q-143 129 -143 358z" />
<glyph unicode="&#xb7;" horiz-adv-x="569" d="M152 436v273h260v-273h-260z" />
<glyph unicode="&#xb8;" horiz-adv-x="569" d="M31 -399l43 86q87 -37 143 -37q52 0 82.5 22t30.5 56q0 28 -21.5 51.5t-68.5 23.5q-39 0 -84 -18l-41 43l131 184h96l-98 -131q46 8 71 8q48 0 83.5 -15t53.5 -38.5t26.5 -47t8.5 -46.5q0 -53 -26.5 -92t-68.5 -58t-82.5 -27.5t-80.5 -8.5q-97 0 -198 45z" />
<glyph unicode="&#xb9;" horiz-adv-x="681" d="M98 1133v172q136 52 246 129h172v-859h-201v668q-107 -70 -217 -110z" />
<glyph unicode="&#xba;" horiz-adv-x="751" d="M29 1108q0 151 92.5 240.5t255.5 89.5q168 0 258 -91t90 -235q0 -142 -91 -237t-261 -95q-92 0 -161.5 29.5t-108 78.5t-56.5 104t-18 116zM231 1106q0 -199 146 -199q75 0 111 50t36 159q0 201 -145 201q-148 0 -148 -211z" />
<glyph unicode="&#xbb;" d="M66 115l194 387l-194 403h270l223 -403l-223 -387h-270zM563 115l195 387l-195 403h271l223 -403l-223 -387h-271z" />
<glyph unicode="&#xbc;" horiz-adv-x="1708" d="M18 1133v172q136 52 246 129h172v-859h-200v668q-106 -69 -218 -110zM291 -57l852 1542h170l-854 -1542h-168zM995 186v166l373 506h201l-4 -530h127v-142h-129v-186h-201v186h-367zM1145 324h227l8 321z" />
<glyph unicode="&#xbd;" horiz-adv-x="1708" d="M45 1133v172q136 52 246 129h172v-859h-201v668q-107 -70 -217 -110zM287 -57l854 1542h168l-854 -1542h-168zM1010 0v174l241 201q100 84 166 166q37 49 37 94q0 44 -30 74t-76 30q-59 0 -89.5 -35.5t-33.5 -89.5h-203q0 99 55 160q41 49 113 71.5t153 22.5 q143 0 227.5 -64.5t84.5 -168.5q0 -72 -37 -130.5t-150 -164.5q-74 -71 -251 -207q81 3 444 8v-141h-651z" />
<glyph unicode="&#xbe;" horiz-adv-x="1708" d="M49 809h201q2 -16 3.5 -23t9.5 -28t19.5 -32t35.5 -21.5t55 -10.5q47 0 81.5 29t34.5 88q0 31 -8.5 53.5t-27.5 36t-36.5 21.5t-49.5 11.5t-50.5 4t-54.5 0.5v143q48 1 81 5t71.5 16t59 38.5t20.5 67.5q0 49 -34 76t-83 27q-51 0 -83 -30.5t-32 -76.5h-201q3 29 6 46 t15 47t33 53q35 38 101.5 66t160.5 28q76 0 137.5 -21.5t97.5 -56t55 -75t19 -81.5q0 -144 -178 -194q186 -52 186 -205q0 -110 -96.5 -182t-239.5 -72q-23 0 -48 2.5t-65.5 9.5t-78.5 26t-62 48q-55 63 -55 166zM381 -57l852 1542h168l-852 -1542h-168zM971 186v166 l372 506h203l-6 -530h127v-142h-127v-186h-203v186h-366zM1106 324h227l6 227q0 80 2 94z" />
<glyph unicode="&#xbf;" horiz-adv-x="1024" d="M86 -43q0 116 55 195q65 93 109 131l115 104q80 71 102 107.5t22 89.5v166h232v-191q0 -30 -2.5 -48.5t-20.5 -55t-53 -76.5l-90 -100q-73 -84 -114.5 -155.5t-41.5 -141.5q0 -20 3.5 -40.5t18 -51.5t39.5 -54t73 -40t112 -17q45 0 90.5 6.5t79 15t103.5 27.5v-215 q-165 -39 -345 -39q-75 0 -144.5 13t-132.5 43t-109 73.5t-73.5 108.5t-27.5 145zM481 836v245h246v-245h-246z" />
<glyph unicode="&#xc0;" horiz-adv-x="1478" d="M10 0l535 1481h377l514 -1481h-320l-106 319h-586l-111 -319h-303zM430 1880h287l172 -297h-174zM506 559h424l-205 631z" />
<glyph unicode="&#xc1;" horiz-adv-x="1478" d="M10 0l535 1481h377l514 -1481h-320l-106 319h-586l-111 -319h-303zM506 559h424l-205 631zM602 1583l170 297h275l-281 -297h-164z" />
<glyph unicode="&#xc2;" horiz-adv-x="1478" d="M10 0l535 1481h377l514 -1481h-320l-106 319h-586l-111 -319h-303zM410 1583l225 297h211l213 -297h-182l-140 174l-143 -174h-184zM506 559h424l-205 631z" />
<glyph unicode="&#xc3;" horiz-adv-x="1478" d="M10 0l535 1481h377l514 -1481h-320l-106 319h-586l-111 -319h-303zM369 1599q17 114 83 183t158 69q19 0 44.5 -5.5t40 -10t18.5 -6.5l116 -45q36 -12 70 -12q78 0 96 94h105q-14 -128 -82 -191q-59 -59 -148 -59q-43 0 -106 22l-88 33q-66 21 -92 21q-77 0 -109 -93 h-106zM506 559h424l-205 631z" />
<glyph unicode="&#xc4;" horiz-adv-x="1478" d="M10 0l535 1481h377l514 -1481h-320l-106 319h-586l-111 -319h-303zM455 1591v242h209v-242h-209zM506 559h424l-205 631zM807 1591v242h209v-242h-209z" />
<glyph unicode="&#xc5;" horiz-adv-x="1478" d="M10 0l535 1481h377l514 -1481h-320l-106 319h-586l-111 -319h-303zM506 559h424l-205 631zM532 1712q0 86 60.5 147.5t146.5 61.5q88 0 147.5 -61.5t59.5 -147.5t-60 -147.5t-147 -61.5q-85 0 -146 61t-61 148zM631 1712q0 -44 32 -76t76 -32q46 0 78.5 32t32.5 76 q0 45 -32 78t-79 33q-44 0 -76 -32.5t-32 -78.5z" />
<glyph unicode="&#xc6;" horiz-adv-x="2048" d="M-16 0l819 1477h1120v-240h-686l53 -365h596v-237h-563l57 -389h562v-246h-852l-46 322h-557l-161 -322h-342zM612 555h402l-86 643z" />
<glyph unicode="&#xc7;" horiz-adv-x="1366" d="M70 709q0 233 82 409.5t236 273.5t360 97q244 0 397 -136t153 -356h-323q-31 260 -240 260q-86 0 -151.5 -42.5t-104.5 -118.5t-58.5 -174t-19.5 -215q0 -31 1 -56.5t7 -81.5t16.5 -99.5t34 -97t55 -89t82.5 -60t114 -24.5q109 0 185.5 70.5t80.5 209.5h334 q-3 -43 -6 -72t-17 -82.5t-36 -94.5t-65.5 -90t-103.5 -87q-141 -88 -335 -88l-70 -92q46 8 74 8q48 0 83 -15t53 -38.5t26 -47t8 -46.5q0 -53 -26.5 -92t-68 -58.5t-82.5 -28t-81 -8.5q-98 0 -199 45l43 86q88 -36 143 -36q52 0 83.5 21.5t31.5 55.5q0 28 -22.5 52 t-69.5 24q-39 0 -84 -18l-41 43l106 151q-259 25 -405 187q-180 204 -180 551z" />
<glyph unicode="&#xc8;" horiz-adv-x="1251" d="M152 0v1481h991v-242h-674v-352h631v-242h-631v-399h696v-246h-1013zM317 1880h287l172 -297h-174z" />
<glyph unicode="&#xc9;" horiz-adv-x="1251" d="M152 0v1481h991v-242h-674v-352h631v-242h-631v-399h696v-246h-1013zM489 1583l170 297h275l-281 -297h-164z" />
<glyph unicode="&#xca;" horiz-adv-x="1251" d="M152 0v1481h991v-242h-674v-352h631v-242h-631v-399h696v-246h-1013zM297 1583l225 297h211l213 -297h-182l-139 174l-144 -174h-184z" />
<glyph unicode="&#xcb;" horiz-adv-x="1251" d="M152 0v1481h991v-242h-674v-352h631v-242h-631v-399h696v-246h-1013zM342 1591v242h209v-242h-209zM694 1591v242h209v-242h-209z" />
<glyph unicode="&#xcc;" horiz-adv-x="569" d="M-25 1880h287l172 -297h-174zM123 0v1485h317v-1485h-317z" />
<glyph unicode="&#xcd;" horiz-adv-x="569" d="M123 0v1485h317v-1485h-317zM147 1583l170 297h275l-281 -297h-164z" />
<glyph unicode="&#xce;" horiz-adv-x="569" d="M-45 1583l225 297h211l213 -297h-182l-139 174l-144 -174h-184zM123 0v1485h317v-1485h-317z" />
<glyph unicode="&#xcf;" horiz-adv-x="569" d="M0 1591v242h209v-242h-209zM123 0v1485h317v-1485h-317zM352 1591v242h209v-242h-209z" />
<glyph unicode="&#xd0;" horiz-adv-x="1478" d="M0 723v178h133v576l490 -2q328 0 510 -134q89 -65 147 -165t81 -202t23 -214q0 -165 -42 -300t-115 -224.5t-166 -144.5t-201 -75q-88 -16 -266 -16h-461v723h-133zM455 244q70 -4 125 -4q120 0 200.5 19.5t143.5 82.5q44 44 73 105.5t41 126t15.5 106t3.5 80.5 q0 81 -14.5 152t-45.5 133.5t-85 107t-126 64.5q-109 30 -331 20v-336h297v-178h-297v-479z" />
<glyph unicode="&#xd1;" horiz-adv-x="1593" d="M147 0v1481h459l555 -1166v1166h295v-1481h-436l-574 1229v-1229h-299zM426 1599q17 114 83.5 183t158.5 69q19 0 44 -5.5t39.5 -10t18.5 -6.5l117 -45q36 -12 69 -12q79 0 97 94h104q-14 -128 -82 -191q-59 -59 -147 -59q-44 0 -107 22l-88 33q-66 21 -92 21 q-77 0 -109 -93h-106z" />
<glyph unicode="&#xd2;" horiz-adv-x="1593" d="M86 719q0 123 22.5 234t75.5 214.5t132.5 178.5t203 120t277.5 45q343 0 520 -200q56 -64 95.5 -140.5t58.5 -152.5t26.5 -139t7.5 -125q0 -166 -49 -323.5t-137 -256.5q-58 -65 -132 -110t-148.5 -65t-132 -28t-113.5 -8q-153 0 -290 50.5t-235 152.5q-182 193 -182 553 zM418 729q0 -270 110 -414q87 -118 269 -118q188 0 276 137q101 153 101 424q0 157 -37 264q-44 132 -132 197t-206 65q-176 0 -273 -125q-108 -131 -108 -430zM487 1880h287l172 -297h-174z" />
<glyph unicode="&#xd3;" horiz-adv-x="1593" d="M86 719q0 123 22.5 234t75.5 214.5t132.5 178.5t203 120t277.5 45q343 0 520 -200q56 -64 95.5 -140.5t58.5 -152.5t26.5 -139t7.5 -125q0 -166 -49 -323.5t-137 -256.5q-58 -65 -132 -110t-148.5 -65t-132 -28t-113.5 -8q-153 0 -290 50.5t-235 152.5q-182 193 -182 553 zM418 729q0 -270 110 -414q87 -118 269 -118q188 0 276 137q101 153 101 424q0 157 -37 264q-44 132 -132 197t-206 65q-176 0 -273 -125q-108 -131 -108 -430zM659 1583l170 297h275l-281 -297h-164z" />
<glyph unicode="&#xd4;" horiz-adv-x="1593" d="M86 719q0 123 22.5 234t75.5 214.5t132.5 178.5t203 120t277.5 45q343 0 520 -200q56 -64 95.5 -140.5t58.5 -152.5t26.5 -139t7.5 -125q0 -166 -49 -323.5t-137 -256.5q-58 -65 -132 -110t-148.5 -65t-132 -28t-113.5 -8q-153 0 -290 50.5t-235 152.5q-182 193 -182 553 zM418 729q0 -270 110 -414q87 -118 269 -118q188 0 276 137q101 153 101 424q0 157 -37 264q-44 132 -132 197t-206 65q-176 0 -273 -125q-108 -131 -108 -430zM467 1583l225 297h211l213 -297h-182l-139 174l-144 -174h-184z" />
<glyph unicode="&#xd5;" horiz-adv-x="1593" d="M86 719q0 123 22.5 234t75.5 214.5t132.5 178.5t203 120t277.5 45q343 0 520 -200q56 -64 95.5 -140.5t58.5 -152.5t26.5 -139t7.5 -125q0 -166 -49 -323.5t-137 -256.5q-58 -65 -132 -110t-148.5 -65t-132 -28t-113.5 -8q-153 0 -290 50.5t-235 152.5q-182 193 -182 553 zM418 729q0 -270 110 -414q87 -118 269 -118q188 0 276 137q101 153 101 424q0 157 -37 264q-44 132 -132 197t-206 65q-176 0 -273 -125q-108 -131 -108 -430zM426 1599q17 114 83.5 183t158.5 69q19 0 44 -5.5t39.5 -10t18.5 -6.5l117 -45q36 -12 69 -12q79 0 97 94h104 q-14 -128 -82 -191q-59 -59 -147 -59q-44 0 -107 22l-88 33q-66 21 -92 21q-77 0 -109 -93h-106z" />
<glyph unicode="&#xd6;" horiz-adv-x="1593" d="M86 719q0 123 22.5 234t75.5 214.5t132.5 178.5t203 120t277.5 45q343 0 520 -200q56 -64 95.5 -140.5t58.5 -152.5t26.5 -139t7.5 -125q0 -166 -49 -323.5t-137 -256.5q-58 -65 -132 -110t-148.5 -65t-132 -28t-113.5 -8q-153 0 -290 50.5t-235 152.5q-182 193 -182 553 zM418 729q0 -270 110 -414q87 -118 269 -118q188 0 276 137q101 153 101 424q0 157 -37 264q-44 132 -132 197t-206 65q-176 0 -273 -125q-108 -131 -108 -430zM512 1591v242h209v-242h-209zM864 1591v242h209v-242h-209z" />
<glyph unicode="&#xd7;" horiz-adv-x="1196" d="M68 203l342 342l-342 344l188 188l342 -344l342 344l188 -188l-342 -344l342 -342l-188 -189l-342 344l-342 -344z" />
<glyph unicode="&#xd8;" horiz-adv-x="1593" d="M4 0l211 227q-133 188 -133 492q0 74 8.5 145.5t30.5 152t56.5 150t90.5 134t128 110t174 73t223 27.5q294 0 469 -151l192 207l96 -97l-194 -213q145 -193 145 -509q0 -194 -54 -346t-150.5 -247t-223.5 -143.5t-278 -48.5q-301 0 -488 162l-205 -221zM416 729 q0 -149 30 -248l625 674q-100 135 -278 135q-99 0 -183.5 -50t-132.5 -146q-61 -130 -61 -365zM508 340q95 -145 287 -145q374 0 374 569q0 153 -32 258z" />
<glyph unicode="&#xd9;" horiz-adv-x="1593" d="M147 592v885h318v-902q0 -43 1.5 -72t8.5 -70.5t19 -69.5t36 -59t57 -49.5t84 -31t115 -12.5q204 0 287 129q25 36 36 90.5t11 161.5v885h310v-924q0 -127 -39.5 -229t-103 -166.5t-150 -107.5t-175 -61t-182.5 -18q-51 0 -101.5 5t-117.5 21.5t-124.5 43t-115.5 74.5 t-98 112q-49 77 -62.5 158t-13.5 207zM487 1880h287l172 -297h-174z" />
<glyph unicode="&#xda;" horiz-adv-x="1593" d="M147 592v885h318v-902q0 -43 1.5 -72t8.5 -70.5t19 -69.5t36 -59t57 -49.5t84 -31t115 -12.5q204 0 287 129q25 36 36 90.5t11 161.5v885h310v-924q0 -127 -39.5 -229t-103 -166.5t-150 -107.5t-175 -61t-182.5 -18q-51 0 -101.5 5t-117.5 21.5t-124.5 43t-115.5 74.5 t-98 112q-49 77 -62.5 158t-13.5 207zM659 1583l170 297h275l-281 -297h-164z" />
<glyph unicode="&#xdb;" horiz-adv-x="1593" d="M147 592v885h318v-902q0 -43 1.5 -72t8.5 -70.5t19 -69.5t36 -59t57 -49.5t84 -31t115 -12.5q204 0 287 129q25 36 36 90.5t11 161.5v885h310v-924q0 -127 -39.5 -229t-103 -166.5t-150 -107.5t-175 -61t-182.5 -18q-51 0 -101.5 5t-117.5 21.5t-124.5 43t-115.5 74.5 t-98 112q-49 77 -62.5 158t-13.5 207zM467 1583l225 297h211l213 -297h-182l-139 174l-144 -174h-184z" />
<glyph unicode="&#xdc;" horiz-adv-x="1593" d="M147 592v885h318v-902q0 -43 1.5 -72t8.5 -70.5t19 -69.5t36 -59t57 -49.5t84 -31t115 -12.5q204 0 287 129q25 36 36 90.5t11 161.5v885h310v-924q0 -127 -39.5 -229t-103 -166.5t-150 -107.5t-175 -61t-182.5 -18q-51 0 -101.5 5t-117.5 21.5t-124.5 43t-115.5 74.5 t-98 112q-49 77 -62.5 158t-13.5 207zM512 1591v242h209v-242h-209zM864 1591v242h209v-242h-209z" />
<glyph unicode="&#xdd;" horiz-adv-x="1366" d="M33 1475h370l306 -674l311 674h326l-500 -936v-539h-314v543zM547 1583l170 297h274l-280 -297h-164z" />
<glyph unicode="&#xde;" horiz-adv-x="1251" d="M133 0v1477h313v-226h144q177 0 291.5 -25.5t197.5 -109.5q115 -115 115 -309q0 -120 -48 -223t-140 -166q-46 -32 -120 -49t-119 -19t-112 -2h-200v-348h-322zM446 584h127q144 0 193 30q52 30 76 84.5t24 112.5q0 41 -10.5 73.5t-25.5 53t-40 35t-45 21.5t-50.5 11 t-46.5 4.5t-42 0.5h-160v-426z" />
<glyph unicode="&#xdf;" horiz-adv-x="1366" d="M121 0v1104q0 67 15.5 125.5t36 94t48.5 65t44.5 41.5t31.5 20q120 70 328 70q88 0 169.5 -17.5t151.5 -53t112 -97t42 -140.5q0 -76 -39 -133t-150 -129q-21 -13 -31.5 -22t-21 -28.5t-10.5 -45.5t18.5 -49t77.5 -57l160 -97q31 -18 53 -33t49 -42t44 -57.5t28.5 -76.5 t11.5 -102q0 -373 -411 -373q-33 0 -59.5 1.5t-64 9t-66.5 20.5t-61 37.5t-54 58.5t-38 85.5t-20 115.5h268q0 -61 33 -94q28 -31 74 -31q44 0 79.5 36.5t35.5 108.5q0 55 -25 99t-92 84l-160 96q-94 56 -131 99t-37 122q0 66 32 125t122 133q42 36 62 64t20 67 q0 54 -41.5 90.5t-116.5 36.5q-121 0 -182 -88q-39 -55 -39 -168v-1075h-297z" />
<glyph unicode="&#xe0;" d="M86 285q0 37 8 74t29.5 83t68 89.5t113.5 74.5q129 58 410 58q0 91 -15 137q-12 35 -41 55.5t-51.5 25.5t-42.5 5q-74 0 -114 -58q-23 -35 -23 -92h-297q6 165 117 244q116 84 313 84q57 0 112.5 -7t132.5 -39t124 -87q71 -85 71 -254l3 -416q0 -147 24 -262h-274 q-11 69 -11 141q-27 -40 -58 -70t-61.5 -47t-56 -28t-54.5 -15t-43.5 -5t-35.5 -1q-172 0 -258 82q-90 90 -90 228zM260 1495h287l172 -297h-174zM381 319q0 -58 38.5 -102.5t108.5 -44.5q77 0 129 59q37 45 47.5 102.5t10.5 153.5q-149 12 -241.5 -32.5t-92.5 -135.5z" />
<glyph unicode="&#xe1;" d="M86 285q0 37 8 74t29.5 83t68 89.5t113.5 74.5q129 58 410 58q0 91 -15 137q-12 35 -41 55.5t-51.5 25.5t-42.5 5q-74 0 -114 -58q-23 -35 -23 -92h-297q6 165 117 244q116 84 313 84q57 0 112.5 -7t132.5 -39t124 -87q71 -85 71 -254l3 -416q0 -147 24 -262h-274 q-11 69 -11 141q-27 -40 -58 -70t-61.5 -47t-56 -28t-54.5 -15t-43.5 -5t-35.5 -1q-172 0 -258 82q-90 90 -90 228zM381 319q0 -58 38.5 -102.5t108.5 -44.5q77 0 129 59q37 45 47.5 102.5t10.5 153.5q-149 12 -241.5 -32.5t-92.5 -135.5zM432 1198l170 297h275l-281 -297 h-164z" />
<glyph unicode="&#xe2;" d="M86 285q0 37 8 74t29.5 83t68 89.5t113.5 74.5q129 58 410 58q0 91 -15 137q-12 35 -41 55.5t-51.5 25.5t-42.5 5q-74 0 -114 -58q-23 -35 -23 -92h-297q6 165 117 244q116 84 313 84q57 0 112.5 -7t132.5 -39t124 -87q71 -85 71 -254l3 -416q0 -147 24 -262h-274 q-11 69 -11 141q-27 -40 -58 -70t-61.5 -47t-56 -28t-54.5 -15t-43.5 -5t-35.5 -1q-172 0 -258 82q-90 90 -90 228zM240 1198l225 297h211l213 -297h-182l-140 174l-143 -174h-184zM381 319q0 -58 38.5 -102.5t108.5 -44.5q77 0 129 59q37 45 47.5 102.5t10.5 153.5 q-149 12 -241.5 -32.5t-92.5 -135.5z" />
<glyph unicode="&#xe3;" d="M86 285q0 37 8 74t29.5 83t68 89.5t113.5 74.5q129 58 410 58q0 91 -15 137q-12 35 -41 55.5t-51.5 25.5t-42.5 5q-74 0 -114 -58q-23 -35 -23 -92h-297q6 165 117 244q116 84 313 84q57 0 112.5 -7t132.5 -39t124 -87q71 -85 71 -254l3 -416q0 -147 24 -262h-274 q-11 69 -11 141q-27 -40 -58 -70t-61.5 -47t-56 -28t-54.5 -15t-43.5 -5t-35.5 -1q-172 0 -258 82q-90 90 -90 228zM199 1214q17 114 83 183t158 69q19 0 44.5 -5.5t40 -10t18.5 -6.5l116 -45q39 -13 70 -13q77 0 96 95h105q-14 -128 -82 -191q-59 -59 -148 -59 q-43 0 -106 22l-88 33q-66 21 -92 21q-77 0 -109 -93h-106zM381 319q0 -58 38.5 -102.5t108.5 -44.5q77 0 129 59q37 45 47.5 102.5t10.5 153.5q-149 12 -241.5 -32.5t-92.5 -135.5z" />
<glyph unicode="&#xe4;" d="M86 285q0 37 8 74t29.5 83t68 89.5t113.5 74.5q129 58 410 58q0 91 -15 137q-12 35 -41 55.5t-51.5 25.5t-42.5 5q-74 0 -114 -58q-23 -35 -23 -92h-297q6 165 117 244q116 84 313 84q57 0 112.5 -7t132.5 -39t124 -87q71 -85 71 -254l3 -416q0 -147 24 -262h-274 q-11 69 -11 141q-27 -40 -58 -70t-61.5 -47t-56 -28t-54.5 -15t-43.5 -5t-35.5 -1q-172 0 -258 82q-90 90 -90 228zM285 1227v241h209v-241h-209zM381 319q0 -58 38.5 -102.5t108.5 -44.5q77 0 129 59q37 45 47.5 102.5t10.5 153.5q-149 12 -241.5 -32.5t-92.5 -135.5z M637 1227v241h209v-241h-209z" />
<glyph unicode="&#xe5;" d="M86 285q0 37 8 74t29.5 83t68 89.5t113.5 74.5q129 58 410 58q0 91 -15 137q-12 35 -41 55.5t-51.5 25.5t-42.5 5q-74 0 -114 -58q-23 -35 -23 -92h-297q6 165 117 244q116 84 313 84q57 0 112.5 -7t132.5 -39t124 -87q71 -85 71 -254l3 -416q0 -147 24 -262h-274 q-11 69 -11 141q-27 -40 -58 -70t-61.5 -47t-56 -28t-54.5 -15t-43.5 -5t-35.5 -1q-172 0 -258 82q-90 90 -90 228zM362 1348q0 86 60.5 147t146.5 61q88 0 147.5 -61t59.5 -147t-60 -147.5t-147 -61.5q-85 0 -146 61t-61 148zM381 319q0 -58 38.5 -102.5t108.5 -44.5 q77 0 129 59q37 45 47.5 102.5t10.5 153.5q-149 12 -241.5 -32.5t-92.5 -135.5zM461 1348q0 -44 32 -76.5t76 -32.5q46 0 78.5 32.5t32.5 76.5q0 45 -32 77.5t-79 32.5q-44 0 -76 -32t-32 -78z" />
<glyph unicode="&#xe6;" horiz-adv-x="1820" d="M78 285q0 31 5.5 62.5t21.5 77t55.5 87.5t97.5 70q47 23 104 37.5t140 20.5t120 7t136 2q11 240 -172 240q-63 0 -109.5 -34t-50.5 -112h-293q6 71 30.5 126.5t62 91.5t89.5 60t109.5 34t124.5 10q68 0 126.5 -13.5t94.5 -29t70.5 -43t46.5 -40.5t31 -36q20 23 33 37 t47.5 41t69.5 42.5t92 28.5t122 13q125 0 223.5 -52.5t159.5 -148.5q29 -46 46.5 -100.5t23.5 -118.5t7 -90.5t1 -81.5h-692q0 -135 34 -203q26 -54 75.5 -80t101.5 -26q47 0 80 15.5t51 44.5t25 47.5t14 47.5h284q-16 -128 -88 -215q-113 -135 -344 -135q-76 0 -142 16.5 t-105 36.5t-74 51.5t-47 47.5t-27 39q-28 -33 -49.5 -55t-60 -52t-78.5 -48t-99 -31t-127 -13q-195 0 -296 89.5t-101 234.5zM371 299q0 -66 47.5 -104.5t111.5 -38.5q51 0 104 26t81 82q31 62 41 209q-29 4 -90 4q-24 0 -42.5 -1t-58 -5.5t-69 -16t-60.5 -30t-48 -51 t-17 -74.5zM1049 649h381q0 25 -1.5 46t-11 59t-27 64t-53.5 46.5t-86 20.5q-51 0 -89.5 -20.5t-58.5 -47t-33 -64.5t-16 -59t-5 -45z" />
<glyph unicode="&#xe7;" horiz-adv-x="1024" d="M72 518q0 97 20 177.5t51.5 135t75.5 96.5t88 65.5t92.5 38t85 19.5t70.5 5q60 0 118 -13t113.5 -42.5t97 -73.5t67 -110.5t26.5 -147.5h-297q-21 190 -133 190q-50 0 -84.5 -34t-49.5 -90.5t-20.5 -104.5t-5.5 -101q0 -45 3.5 -93t22 -119t50.5 -105q33 -35 82 -35 q13 0 26 2.5t33 14.5t35.5 32t28.5 59t16 91h299q-2 -41 -6 -70.5t-16.5 -73.5t-40.5 -85t-70 -76q-63 -54 -128 -73.5t-140 -23.5l-74 -100q46 8 74 8q48 0 83 -15t53 -38.5t26 -47t8 -46.5q0 -53 -26.5 -92t-68 -58.5t-82.5 -28t-81 -8.5q-98 0 -199 45l43 86 q88 -36 143 -36q52 0 83.5 21.5t31.5 55.5q0 28 -22.5 52t-69.5 24q-42 0 -82 -18l-43 43l108 155q-33 4 -55 8t-66 17.5t-85.5 41.5t-77.5 69q-131 149 -131 407z" />
<glyph unicode="&#xe8;" d="M86 494q0 339 215 489q130 86 291 86q59 0 115 -12.5t113 -39.5t106.5 -78t83.5 -120q72 -145 61 -379h-694q0 -276 211 -276q144 0 180 143h276q-11 -134 -98 -225q-56 -59 -151 -90t-211 -31q-241 0 -365 129q-133 139 -133 404zM260 1495h287l172 -297h-174zM387 631 h375q0 23 -1.5 43t-11.5 57.5t-27.5 63.5t-53.5 46.5t-86 20.5q-94 0 -142 -65.5t-53 -165.5z" />
<glyph unicode="&#xe9;" d="M86 494q0 339 215 489q130 86 291 86q59 0 115 -12.5t113 -39.5t106.5 -78t83.5 -120q72 -145 61 -379h-694q0 -276 211 -276q144 0 180 143h276q-11 -134 -98 -225q-56 -59 -151 -90t-211 -31q-241 0 -365 129q-133 139 -133 404zM387 631h375q0 23 -1.5 43t-11.5 57.5 t-27.5 63.5t-53.5 46.5t-86 20.5q-94 0 -142 -65.5t-53 -165.5zM432 1198l170 297h275l-281 -297h-164z" />
<glyph unicode="&#xea;" d="M86 494q0 339 215 489q130 86 291 86q59 0 115 -12.5t113 -39.5t106.5 -78t83.5 -120q72 -145 61 -379h-694q0 -276 211 -276q144 0 180 143h276q-11 -134 -98 -225q-56 -59 -151 -90t-211 -31q-241 0 -365 129q-133 139 -133 404zM240 1198l225 297h211l213 -297h-182 l-140 174l-143 -174h-184zM387 631h375q0 23 -1.5 43t-11.5 57.5t-27.5 63.5t-53.5 46.5t-86 20.5q-94 0 -142 -65.5t-53 -165.5z" />
<glyph unicode="&#xeb;" d="M86 494q0 339 215 489q130 86 291 86q59 0 115 -12.5t113 -39.5t106.5 -78t83.5 -120q72 -145 61 -379h-694q0 -276 211 -276q144 0 180 143h276q-11 -134 -98 -225q-56 -59 -151 -90t-211 -31q-241 0 -365 129q-133 139 -133 404zM285 1227v241h209v-241h-209zM387 631 h375q0 23 -1.5 43t-11.5 57.5t-27.5 63.5t-53.5 46.5t-86 20.5q-94 0 -142 -65.5t-53 -165.5zM637 1227v241h209v-241h-209z" />
<glyph unicode="&#xec;" horiz-adv-x="569" d="M-25 1495h287l172 -297h-174zM133 0v1036h303v-1036h-303z" />
<glyph unicode="&#xed;" horiz-adv-x="569" d="M133 0v1036h303v-1036h-303zM147 1198l170 297h275l-281 -297h-164z" />
<glyph unicode="&#xee;" horiz-adv-x="569" d="M-45 1198l225 297h211l213 -297h-182l-139 174l-144 -174h-184zM133 0v1036h303v-1036h-303z" />
<glyph unicode="&#xef;" horiz-adv-x="569" d="M0 1227v241h209v-241h-209zM133 0v1036h303v-1036h-303zM352 1227v241h209v-241h-209z" />
<glyph unicode="&#xf0;" horiz-adv-x="1251" d="M98 483q0 110 30.5 199.5t79.5 146t113 95t126.5 54t125.5 15.5q153 0 271 -94q-53 87 -121 160.5t-191 154.5l-188 -129l-90 70l176 121q-90 46 -201 90l162 184q157 -71 256 -129l162 111l90 -70l-156 -104q39 -29 69.5 -54t76 -69t79 -87.5t71 -107.5t61.5 -131.5 t39.5 -155.5t15.5 -184q0 -131 -30 -237.5t-92.5 -188.5t-166.5 -127t-243 -45q-220 0 -344 95q-92 67 -136.5 177t-44.5 240zM406 483q0 -317 227 -317q221 0 221 338q0 39 -3 73.5t-16.5 81.5t-36 80t-65 56.5t-100.5 23.5q-47 0 -84 -16t-60.5 -39t-40 -58.5t-24.5 -64 t-12.5 -66t-5 -54t-0.5 -38.5z" />
<glyph unicode="&#xf1;" horiz-adv-x="1251" d="M131 1038h291l8 -155q14 22 25 37.5t41 45t63 48.5t88 34t119 15q72 0 130 -19.5t94.5 -51.5t57.5 -62.5t33 -61.5q18 -48 23.5 -107.5t5.5 -201.5v-559h-309v643q0 78 -17 113q-45 88 -147 88q-49 0 -91 -21.5t-67 -58.5q-37 -56 -37 -158v-606h-305v850q0 116 -6 188z M256 1214q17 114 83.5 183t158.5 69q19 0 44 -5.5t39.5 -10t18.5 -6.5l117 -45q39 -13 69 -13q78 0 97 95h104q-14 -128 -82 -191q-59 -59 -147 -59q-44 0 -107 22l-88 33q-66 21 -92 21q-77 0 -109 -93h-106z" />
<glyph unicode="&#xf2;" horiz-adv-x="1251" d="M86 508q0 79 16 153.5t55.5 148t98.5 128t153 88t212 33.5q136 0 241 -43.5t168 -120t95 -172.5t32 -207q0 -89 -20 -169.5t-63.5 -151t-106 -122t-153.5 -81t-200 -29.5q-112 0 -207 35t-167 101.5t-113 171.5t-41 237zM317 1495h287l172 -297h-174zM397 506 q0 -171 57 -251.5t171 -80.5q108 0 165.5 80t57.5 274q0 328 -227 328q-224 0 -224 -350z" />
<glyph unicode="&#xf3;" horiz-adv-x="1251" d="M86 508q0 79 16 153.5t55.5 148t98.5 128t153 88t212 33.5q136 0 241 -43.5t168 -120t95 -172.5t32 -207q0 -89 -20 -169.5t-63.5 -151t-106 -122t-153.5 -81t-200 -29.5q-112 0 -207 35t-167 101.5t-113 171.5t-41 237zM397 506q0 -171 57 -251.5t171 -80.5 q108 0 165.5 80t57.5 274q0 328 -227 328q-224 0 -224 -350zM489 1198l170 297h275l-281 -297h-164z" />
<glyph unicode="&#xf4;" horiz-adv-x="1251" d="M86 508q0 79 16 153.5t55.5 148t98.5 128t153 88t212 33.5q136 0 241 -43.5t168 -120t95 -172.5t32 -207q0 -89 -20 -169.5t-63.5 -151t-106 -122t-153.5 -81t-200 -29.5q-112 0 -207 35t-167 101.5t-113 171.5t-41 237zM297 1198l225 297h211l213 -297h-182l-139 174 l-144 -174h-184zM397 506q0 -171 57 -251.5t171 -80.5q108 0 165.5 80t57.5 274q0 328 -227 328q-224 0 -224 -350z" />
<glyph unicode="&#xf5;" horiz-adv-x="1251" d="M86 508q0 79 16 153.5t55.5 148t98.5 128t153 88t212 33.5q136 0 241 -43.5t168 -120t95 -172.5t32 -207q0 -89 -20 -169.5t-63.5 -151t-106 -122t-153.5 -81t-200 -29.5q-112 0 -207 35t-167 101.5t-113 171.5t-41 237zM256 1214q17 114 83.5 183t158.5 69q19 0 44 -5.5 t39.5 -10t18.5 -6.5l117 -45q39 -13 69 -13q78 0 97 95h104q-14 -128 -82 -191q-59 -59 -147 -59q-44 0 -107 22l-88 33q-66 21 -92 21q-77 0 -109 -93h-106zM397 506q0 -171 57 -251.5t171 -80.5q108 0 165.5 80t57.5 274q0 328 -227 328q-224 0 -224 -350z" />
<glyph unicode="&#xf6;" horiz-adv-x="1251" d="M86 508q0 79 16 153.5t55.5 148t98.5 128t153 88t212 33.5q136 0 241 -43.5t168 -120t95 -172.5t32 -207q0 -89 -20 -169.5t-63.5 -151t-106 -122t-153.5 -81t-200 -29.5q-112 0 -207 35t-167 101.5t-113 171.5t-41 237zM342 1227v241h209v-241h-209zM397 506 q0 -171 57 -251.5t171 -80.5q108 0 165.5 80t57.5 274q0 328 -227 328q-224 0 -224 -350zM694 1227v241h209v-241h-209z" />
<glyph unicode="&#xf7;" horiz-adv-x="1196" d="M43 414v264h1092v-264h-1092zM436 8v301h305v-301h-305zM436 782v301h305v-301h-305z" />
<glyph unicode="&#xf8;" horiz-adv-x="1251" d="M18 -4l164 176q-25 37 -42.5 69t-36.5 106t-19 159q0 254 142.5 402.5t389.5 148.5q205 0 338 -92l152 155l84 -71l-154 -160q22 -27 36 -49.5t36 -69t33.5 -111.5t11.5 -145q0 -115 -32 -212t-95 -173t-167 -119t-238 -43q-65 0 -121.5 9t-91.5 20t-69 30t-48 30.5 t-35 29.5l-154 -160zM397 520q0 -60 9 -121l376 389q-61 68 -161 68q-53 0 -93.5 -19t-63.5 -53t-38 -67.5t-20.5 -77.5t-7 -67.5t-1.5 -51.5zM442 276q10 -19 20.5 -32.5t30.5 -31.5t52 -28t73 -10q59 0 102.5 22t66.5 53.5t36.5 79.5t17 87.5t3.5 89.5q0 98 -13 170z" />
<glyph unicode="&#xf9;" horiz-adv-x="1251" d="M123 391v643h307v-616q0 -27 0.5 -41.5t3.5 -42t8.5 -44.5t17.5 -38t29 -33t43 -20.5t60 -8.5q32 0 58 6t45 14t34 25t24.5 30.5t16 40.5t9.5 43.5t5 51.5t2 53v58v522h312v-682q2 -96 3.5 -161t2 -85t0.5 -30q2 -36 8 -76h-295l-10 137q-16 -23 -25 -35.5t-38.5 -40.5 t-58.5 -44t-78 -30t-105 -14q-100 0 -183.5 40t-128.5 100q-67 83 -67 278zM317 1495h287l172 -297h-174z" />
<glyph unicode="&#xfa;" horiz-adv-x="1251" d="M123 391v643h307v-616q0 -27 0.5 -41.5t3.5 -42t8.5 -44.5t17.5 -38t29 -33t43 -20.5t60 -8.5q32 0 58 6t45 14t34 25t24.5 30.5t16 40.5t9.5 43.5t5 51.5t2 53v58v522h312v-682q2 -96 3.5 -161t2 -85t0.5 -30q2 -36 8 -76h-295l-10 137q-16 -23 -25 -35.5t-38.5 -40.5 t-58.5 -44t-78 -30t-105 -14q-100 0 -183.5 40t-128.5 100q-67 83 -67 278zM489 1198l170 297h275l-281 -297h-164z" />
<glyph unicode="&#xfb;" horiz-adv-x="1251" d="M123 391v643h307v-616q0 -27 0.5 -41.5t3.5 -42t8.5 -44.5t17.5 -38t29 -33t43 -20.5t60 -8.5q32 0 58 6t45 14t34 25t24.5 30.5t16 40.5t9.5 43.5t5 51.5t2 53v58v522h312v-682q2 -96 3.5 -161t2 -85t0.5 -30q2 -36 8 -76h-295l-10 137q-16 -23 -25 -35.5t-38.5 -40.5 t-58.5 -44t-78 -30t-105 -14q-100 0 -183.5 40t-128.5 100q-67 83 -67 278zM297 1198l225 297h211l213 -297h-182l-139 174l-144 -174h-184z" />
<glyph unicode="&#xfc;" horiz-adv-x="1251" d="M123 391v643h307v-616q0 -27 0.5 -41.5t3.5 -42t8.5 -44.5t17.5 -38t29 -33t43 -20.5t60 -8.5q32 0 58 6t45 14t34 25t24.5 30.5t16 40.5t9.5 43.5t5 51.5t2 53v58v522h312v-682q2 -96 3.5 -161t2 -85t0.5 -30q2 -36 8 -76h-295l-10 137q-16 -23 -25 -35.5t-38.5 -40.5 t-58.5 -44t-78 -30t-105 -14q-100 0 -183.5 40t-128.5 100q-67 83 -67 278zM342 1227v241h209v-241h-209zM694 1227v241h209v-241h-209z" />
<glyph unicode="&#xfd;" d="M29 1034h327l228 -717l231 717h301l-391 -1016l-125 -411h-305l131 389zM432 1198l170 297h275l-281 -297h-164z" />
<glyph unicode="&#xfe;" horiz-adv-x="1251" d="M86 -397v1878h307v-594q93 168 312 168q203 0 316.5 -141.5t113.5 -376.5q0 -151 -50.5 -274.5t-154 -200t-244.5 -76.5q-194 0 -293 133v-516h-307zM381 508q0 -40 3 -75.5t16.5 -83.5t36.5 -82t66.5 -58.5t102.5 -24.5q54 0 95.5 25.5t64 63t37 87t18.5 88.5t4 78 q0 23 -1.5 46t-6.5 57.5t-13.5 64.5t-24.5 61.5t-37.5 53.5t-54.5 36.5t-73 14.5q-50 0 -94 -23t-71 -61q-68 -93 -68 -268z" />
<glyph unicode="&#xff;" d="M29 1034h327l228 -717l231 717h301l-391 -1016l-125 -411h-305l131 389zM285 1227v241h209v-241h-209zM637 1227v241h209v-241h-209z" />
<glyph unicode="&#x152;" horiz-adv-x="2048" d="M66 723q0 169 48.5 314t149.5 252.5t242 146.5q110 30 191.5 36.5t269.5 6.5h981v-238h-605v-369h586v-237h-588v-389h631v-246h-1005q-77 0 -116.5 0.5t-109.5 4t-111.5 10.5t-100.5 20.5t-100.5 33t-88.5 50t-86 69.5q-59 58 -99.5 135t-58 155t-24 134.5t-6.5 110.5z M393 715q0 -91 15 -164.5t42 -123.5t65 -88t83 -58.5t96.5 -34.5t106.5 -16.5t111.5 -4.5t111.5 2v1030q-180 0 -262 -9.5t-152 -43.5q-112 -53 -164.5 -183t-52.5 -306z" />
<glyph unicode="&#x153;" horiz-adv-x="1933" d="M86 512q0 126 35.5 225t90.5 158t127.5 97.5t138.5 52.5t132 14q72 0 135.5 -16t102 -35t76.5 -51t51 -47.5t33 -41.5q16 25 28.5 42t46 49t70.5 52t98 36t133 16q47 0 93.5 -8t104 -28.5t111.5 -64.5t93 -108q26 -43 42 -97.5t22 -119.5t7 -97.5t1 -90.5h-687 q0 -53 8.5 -99t29.5 -92.5t65 -74t106 -27.5q143 0 176 163h285q-24 -170 -143 -264q-116 -90 -303 -90q-68 0 -125 12.5t-92.5 28t-71.5 45t-53 49t-45 54.5q-88 -107 -184 -149t-222 -42q-114 0 -205 32.5t-148 85.5t-94.5 126t-53 148t-15.5 157zM393 512q0 -178 57 -263 t175 -85q46 0 83 13t62 34t43 52.5t27.5 62t15 70.5t7 69.5t1.5 66.5v34.5t-2.5 41.5t-6 48.5t-12 48t-20 48.5t-29.5 42t-41 35.5t-55.5 22.5t-70.5 9q-234 0 -234 -350zM1171 637h385q0 22 -0.5 37t-4 42t-10 45.5t-19.5 41t-31.5 36.5t-47.5 23.5t-65 9.5 q-86 0 -140.5 -59t-66.5 -176z" />
<glyph unicode="&#x178;" horiz-adv-x="1366" d="M33 1475h370l306 -674l311 674h326l-500 -936v-539h-314v543zM399 1591v242h209v-242h-209zM752 1591v242h209v-242h-209z" />
<glyph unicode="&#x2c6;" horiz-adv-x="569" d="M-45 1198l225 297h211l213 -297h-182l-139 174l-144 -174h-184z" />
<glyph unicode="&#x2dc;" horiz-adv-x="569" d="M-86 1214q17 114 83.5 183t158.5 69q19 0 44 -5.5t39.5 -10t18.5 -6.5l117 -45q39 -13 69 -13q78 0 97 95h104q-14 -128 -82 -191q-59 -59 -147 -59q-44 0 -107 22l-88 33q-66 21 -92 21q-77 0 -109 -93h-106z" />
<glyph unicode="&#x2000;" horiz-adv-x="960" />
<glyph unicode="&#x2001;" horiz-adv-x="1921" />
<glyph unicode="&#x2002;" horiz-adv-x="960" />
<glyph unicode="&#x2003;" horiz-adv-x="1921" />
<glyph unicode="&#x2004;" horiz-adv-x="640" />
<glyph unicode="&#x2005;" horiz-adv-x="480" />
<glyph unicode="&#x2006;" horiz-adv-x="320" />
<glyph unicode="&#x2007;" horiz-adv-x="320" />
<glyph unicode="&#x2008;" horiz-adv-x="240" />
<glyph unicode="&#x2009;" horiz-adv-x="384" />
<glyph unicode="&#x200a;" horiz-adv-x="106" />
<glyph unicode="&#x2010;" horiz-adv-x="681" d="M90 426v231h508v-231h-508z" />
<glyph unicode="&#x2011;" horiz-adv-x="681" d="M90 426v231h508v-231h-508z" />
<glyph unicode="&#x2012;" horiz-adv-x="681" d="M90 426v231h508v-231h-508z" />
<glyph unicode="&#x2013;" horiz-adv-x="1024" d="M0 436v199h1024v-199h-1024z" />
<glyph unicode="&#x2014;" horiz-adv-x="2048" d="M266 436v199h1516v-199h-1516z" />
<glyph unicode="&#x2018;" horiz-adv-x="569" d="M47 973l229 506h216l-146 -506h-299z" />
<glyph unicode="&#x2019;" horiz-adv-x="569" d="M80 973l145 506h299l-229 -506h-215z" />
<glyph unicode="&#x201a;" horiz-adv-x="569" d="M57 -231l152 503h303l-244 -503h-211z" />
<glyph unicode="&#x201c;" d="M131 973l229 506h213l-145 -506h-297zM530 973l230 506h215l-146 -506h-299z" />
<glyph unicode="&#x201d;" d="M137 973l146 506h299l-232 -506h-213zM539 973l143 506h299l-229 -506h-213z" />
<glyph unicode="&#x201e;" d="M139 -231l146 503h293l-228 -503h-211zM547 -231l145 503h293l-227 -503h-211z" />
<glyph unicode="&#x2022;" horiz-adv-x="716" d="M-12 741q0 154 108.5 261.5t261.5 107.5t262 -107.5t109 -261.5t-108.5 -262t-262.5 -108t-262 108t-108 262z" />
<glyph unicode="&#x2026;" horiz-adv-x="2048" d="M240 0v272h260v-272h-260zM895 0v272h260v-272h-260zM1550 0v272h260v-272h-260z" />
<glyph unicode="&#x202f;" horiz-adv-x="384" />
<glyph unicode="&#x2039;" horiz-adv-x="569" d="M35 516l223 389h270l-194 -389l194 -401h-270z" />
<glyph unicode="&#x203a;" horiz-adv-x="569" d="M20 115l195 387l-195 403h271l223 -403l-223 -387h-271z" />
<glyph unicode="&#x205f;" horiz-adv-x="480" />
<glyph unicode="&#x20ac;" d="M12 446l37 185h105q-2 25 -2 74q0 10 1 30t1 29h-142l37 184h123q43 233 170 360.5t326 127.5q88 0 166.5 -30t140 -87t97.5 -149.5t36 -208.5h-260q-6 123 -57 195.5t-123 72.5q-171 0 -224 -281h338l-34 -184h-318l-2 -31q0 -67 2 -102h293l-35 -185h-242 q11 -114 64 -183.5t145 -69.5q86 0 137 71.5t54 194.5h264q0 -225 -122.5 -355.5t-332.5 -130.5q-203 0 -322.5 126.5t-158.5 346.5h-162z" />
<glyph unicode="&#x2122;" horiz-adv-x="2048" d="M172 1358v123h674v-123h-258v-617h-156v617h-260zM911 741v740h250l150 -541l162 541h241v-740h-151v635l-193 -635h-127l-190 635v-635h-142z" />
<glyph unicode="&#x25fc;" horiz-adv-x="1034" d="M0 0v1034h1034v-1034h-1034z" />
<glyph unicode="&#xfb01;" horiz-adv-x="1251" d="M4 819v215h156v142q0 49 6 88t20 78t40.5 67.5t64.5 50.5t94.5 33.5t128.5 11.5q80 0 164 -10v-211q-46 6 -64 6q-44 0 -75 -10t-45.5 -21.5t-22.5 -33.5t-9 -34.5t-1 -35.5v-121h190v-215h-190v-819h-301v819h-156zM805 1214v265h323v-265h-323zM815 0v1036h303v-1036 h-303z" />
<glyph unicode="&#xfb02;" horiz-adv-x="1251" d="M10 819v215h154v142q0 59 8.5 104.5t32 89.5t62.5 72.5t103 45.5t150 17q78 0 162 -10v-211q-43 6 -61 6q-45 0 -76 -9.5t-46.5 -22t-23.5 -34t-9 -34.5t-1 -35v-121h192v-215h-192v-819h-301v819h-154zM815 0v1481h303v-1481h-303z" />
</font>
</defs>
</svg>
